  0
SECTION
  2
HEADER
  9
$ACADVER
  1
AC1009
  9
$INSBASE
 10
0.0
 20
0.0
 30
0.0
  9
$EXTMIN
 10
-2905.166365063048
 20
-91.47263719029956
 30
0.0
  9
$EXTMAX
 10
-2526.279607923966
 20
167.1958232814145
 30
0.0
  9
$LIMMIN
 10
0.0
 20
0.0
  9
$LIMMAX
 10
3000.0
 20
2500.0
  9
$ORTHOMODE
 70
     1
  9
$REGENMODE
 70
     1
  9
$FILLMODE
 70
     1
  9
$QTEXTMODE
 70
     0
  9
$MIRRTEXT
 70
     0
  9
$DRAGMODE
 70
     2
  9
$LTSCALE
 40
1.0
  9
$OSMODE
 70
    37
  9
$ATTMODE
 70
     1
  9
$TEXTSIZE
 40
2.5
  9
$TRACEWID
 40
1.0
  9
$TEXTSTYLE
  7
STANDARD
  9
$CLAYER
  8
回07-寸法
  9
$CELTYPE
  6
CONTINUOUS
  9
$CECOLOR
 62
     1
  9
$DIMSCALE
 40
1.0
  9
$DIMASZ
 40
2.0
  9
$DIMEXO
 40
0.0
  9
$DIMDLI
 40
0.0
  9
$DIMRND
 40
0.0
  9
$DIMDLE
 40
0.0
  9
$DIMEXE
 40
1.0
  9
$DIMTP
 40
0.0
  9
$DIMTM
 40
0.0
  9
$DIMTXT
 40
2.5
  9
$DIMCEN
 40
2.0
  9
$DIMTSZ
 40
0.0
  9
$DIMTOL
 70
     0
  9
$DIMLIM
 70
     0
  9
$DIMTIH
 70
     0
  9
$DIMTOH
 70
     0
  9
$DIMSE1
 70
     0
  9
$DIMSE2
 70
     0
  9
$DIMTAD
 70
     3
  9
$DIMZIN
 70
     8
  9
$DIMBLK
  1
OPEN
  9
$DIMASO
 70
     1
  9
$DIMSHO
 70
     1
  9
$DIMPOST
  1

  9
$DIMAPOST
  1

  9
$DIMALT
 70
     0
  9
$DIMALTD
 70
     3
  9
$DIMALTF
 40
0.03937007874016
  9
$DIMLFAC
 40
1.0
  9
$DIMTOFL
 70
     1
  9
$DIMTVP
 40
0.0
  9
$DIMTIX
 70
     0
  9
$DIMSOXD
 70
     0
  9
$DIMSAH
 70
     0
  9
$DIMBLK1
  1

  9
$DIMBLK2
  1

  9
$DIMSTYLE
  2
DMC
  9
$DIMCLRD
 70
     5
  9
$DIMCLRE
 70
     5
  9
$DIMCLRT
 70
     5
  9
$DIMTFAC
 40
0.7
  9
$DIMGAP
 40
0.5
  9
$LUNITS
 70
     2
  9
$LUPREC
 70
     4
  9
$SKETCHINC
 40
1.0
  9
$FILLETRAD
 40
0.5
  9
$AUNITS
 70
     0
  9
$AUPREC
 70
     0
  9
$MENU
  1
.
  9
$ELEVATION
 40
0.0
  9
$PELEVATION
 40
0.0
  9
$THICKNESS
 40
0.0
  9
$LIMCHECK
 70
     0
  9
$BLIPMODE
 70
     0
  9
$CHAMFERA
 40
0.2
  9
$CHAMFERB
 40
0.2
  9
$SKPOLY
 70
     0
  9
$TDCREATE
 40
2451810.404221065
  9
$TDUPDATE
 40
2459458.474768518
  9
$TDINDWG
 40
4.868726250
  9
$TDUSRTIMER
 40
2458801.467670729
  9
$USRTIMER
 70
     1
  9
$ANGBASE
 50
0.0
  9
$ANGDIR
 70
     0
  9
$PDMODE
 70
     0
  9
$PDSIZE
 40
0.0
  9
$PLINEWID
 40
0.6
  9
$COORDS
 70
     0
  9
$SPLFRAME
 70
     0
  9
$SPLINETYPE
 70
     6
  9
$SPLINESEGS
 70
     8
  9
$ATTDIA
 70
     1
  9
$ATTREQ
 70
     1
  9
$HANDLING
 70
     1
  9
$HANDSEED
  5
4AF
  9
$SURFTAB1
 70
     6
  9
$SURFTAB2
 70
     6
  9
$SURFTYPE
 70
     6
  9
$SURFU
 70
     6
  9
$SURFV
 70
     6
  9
$UCSNAME
  2

  9
$UCSORG
 10
0.0
 20
0.0
 30
0.0
  9
$UCSXDIR
 10
1.0
 20
0.0
 30
0.0
  9
$UCSYDIR
 10
0.0
 20
1.0
 30
0.0
  9
$PUCSNAME
  2

  9
$PUCSORG
 10
0.0
 20
0.0
 30
0.0
  9
$PUCSXDIR
 10
1.0
 20
0.0
 30
0.0
  9
$PUCSYDIR
 10
0.0
 20
1.0
 30
0.0
  9
$USERI1
 70
     0
  9
$USERI2
 70
     0
  9
$USERI3
 70
     0
  9
$USERI4
 70
     0
  9
$USERI5
 70
     0
  9
$USERR1
 40
0.0
  9
$USERR2
 40
0.0
  9
$USERR3
 40
0.0
  9
$USERR4
 40
0.0
  9
$USERR5
 40
0.0
  9
$WORLDVIEW
 70
     1
  9
$SHADEDGE
 70
     3
  9
$SHADEDIF
 70
    70
  9
$TILEMODE
 70
     1
  9
$MAXACTVP
 70
    64
  9
$PLIMCHECK
 70
     0
  9
$PEXTMIN
 10
1.000000000000000E+20
 20
1.000000000000000E+20
 30
1.000000000000000E+20
  9
$PEXTMAX
 10
-1.000000000000000E+20
 20
-1.000000000000000E+20
 30
-1.000000000000000E+20
  9
$PLIMMIN
 10
0.0
 20
0.0
  9
$PLIMMAX
 10
420.0
 20
297.0
  9
$UNITMODE
 70
     0
  9
$VISRETAIN
 70
     1
  9
$PLINEGEN
 70
     0
  9
$PSLTSCALE
 70
     1
  0
ENDSEC
  0
SECTION
  2
TABLES
  0
TABLE
  2
VPORT
 70
     1
  0
VPORT
  2
*ACTIVE
 70
     0
 10
0.0
 20
0.0
 11
1.0
 21
1.0
 12
-2680.175695521386
 22
48.24744900161877
 13
0.0
 23
0.0
 14
10.0
 24
10.0
 15
10.0
 25
10.0
 16
0.0
 26
0.0
 36
1.0
 17
0.0
 27
0.0
 37
0.0
 40
435.3677172968691
 41
2.16030534351145
 42
50.0
 43
0.0
 44
0.0
 50
0.0
 51
0.0
 71
    16
 72
 20000
 73
     1
 74
     1
 75
     0
 76
     0
 77
     0
 78
     0
  0
ENDTAB
  0
TABLE
  2
LTYPE
 70
     2
  0
LTYPE
  2
CONTINUOUS
 70
     0
  3
Solid line
 72
    65
 73
     0
 40
0.0
  0
LTYPE
  2
CENTER2
 70
     0
  3
Center (.5x) ___ _ ___ _ ___ _ ___ _ ___ _ ___
 72
    65
 73
     4
 40
28.575
 49
19.05
 49
-3.174999999999999
 49
3.174999999999999
 49
-3.174999999999999
  0
ENDTAB
  0
TABLE
  2
LAYER
 70
     9
  0
LAYER
  2
0
 70
     0
 62
     7
  6
CONTINUOUS
  0
LAYER
  2
DEFPOINTS
 70
     0
 62
     7
  6
CONTINUOUS
  0
LAYER
  2
回04-下接
 70
     0
 62
     7
  6
CONTINUOUS
  0
LAYER
  2
回05-ﾃｰﾙ
 70
     0
 62
     7
  6
CONTINUOUS
  0
LAYER
  2
回07-寸法
 70
     0
 62
     7
  6
CONTINUOUS
  0
LAYER
  2
回90-枠2
 70
     0
 62
     7
  6
CONTINUOUS
  0
LAYER
  2
回04-図面枠
 70
     0
 62
     7
  6
CONTINUOUS
  0
LAYER
  2
回02-寸法
 70
     0
 62
     7
  6
CONTINUOUS
  0
LAYER
  2
回03-記事
 70
     0
 62
     7
  6
CONTINUOUS
  0
ENDTAB
  0
TABLE
  2
STYLE
 70
     1
  0
STYLE
  2
STANDARD
 70
     0
 40
2.5
 41
1.0
 50
0.0
 71
     0
 42
2.5
  3
isocp.shx
  4
bigfont.shx
  0
ENDTAB
  0
TABLE
  2
VIEW
 70
     0
  0
ENDTAB
  0
TABLE
  2
UCS
 70
     0
  0
ENDTAB
  0
TABLE
  2
APPID
 70
     5
  0
APPID
  2
ACAD
 70
     0
  0
APPID
  2
ACAECLAYERSTANDARD
 70
     0
  0
APPID
  2
ACAD_NAV_VCDISPLAY
 70
     0
  0
APPID
  2
ACADSTRINGINFO
 70
     0
  0
APPID
  2
ACAD_PSEXT
 70
     0
  0
ENDTAB
  0
TABLE
  2
DIMSTYLE
 70
     1
  0
DIMSTYLE
  2
DMC
 70
     0
  3

  4

  5
OPEN
  6

  7

 40
1.0
 41
2.0
 42
0.0
 43
0.0
 44
1.0
 45
0.0
 46
0.0
 47
0.0
 48
0.0
140
3.0
141
2.0
142
0.0
143
0.03937007874016
144
1.0
145
0.0
146
0.7
147
0.5
 71
     0
 72
     0
 73
     0
 74
     0
 75
     0
 76
     0
 77
     3
 78
     8
170
     0
171
     3
172
     1
173
     0
174
     0
175
     0
176
     5
177
     5
178
     5
  0
ENDTAB
  0
ENDSEC
  0
SECTION
  2
BLOCKS
  0
BLOCK
  8
0
  2
$MODEL_SPACE
 70
     0
 10
0.0
 20
0.0
 30
0.0
  3
$MODEL_SPACE
  1

  0
ENDBLK
  8
0
  5
21
  0
BLOCK
 67
     1
  8
0
  2
$PAPER_SPACE
 70
     0
 10
0.0
 20
0.0
 30
0.0
  3
$PAPER_SPACE
  1

  0
ENDBLK
  5
27
 67
     1
  8
0
  0
BLOCK
  8
0
  2
_OPEN
 70
     0
 10
0.0
 20
0.0
 30
0.0
  3
_OPEN
  1

  0
LINE
  5
15
  8
0
  6
CONTINUOUS
 62
     0
 10
-1.0
 20
0.1666666666666666
 30
0.0
 11
0.0
 21
0.0
 31
0.0
  0
LINE
  5
16
  8
0
  6
CONTINUOUS
 62
     0
 10
-1.0
 20
-0.1666666666666666
 30
0.0
 11
0.0
 21
0.0
 31
0.0
  0
LINE
  5
17
  8
0
  6
CONTINUOUS
 62
     0
 10
0.0
 20
0.0
 30
0.0
 11
-1.0
 21
0.0
 31
0.0
  0
ENDBLK
  5
18
  8
0
  0
BLOCK
  8
0
  2
*D1
 70
     1
 10
0.0
 20
0.0
 30
0.0
  3
*D1
  1

  0
LINE
  5
332
  8
回02-寸法
  6
CONTINUOUS
 62
     5
 10
-2754.183126451028
 20
72.04196177248366
 30
0.0
 11
-2754.183126451028
 21
80.477957164548
 31
0.0
  0
LINE
  5
333
  8
回02-寸法
  6
CONTINUOUS
 62
     5
 10
-2750.183126451028
 20
72.04196177248366
 30
0.0
 11
-2750.183126451028
 21
80.477957164548
 31
0.0
  0
LINE
  5
334
  8
回02-寸法
  6
CONTINUOUS
 62
     5
 10
-2756.183126451027
 20
79.477957164548
 30
0.0
 11
-2758.183126451028
 21
79.477957164548
 31
0.0
  0
LINE
  5
335
  8
回02-寸法
  6
CONTINUOUS
 62
     5
 10
-2748.183126451028
 20
79.477957164548
 30
0.0
 11
-2743.933126451028
 21
79.477957164548
 31
0.0
  0
LINE
  5
336
  8
回02-寸法
  6
CONTINUOUS
 62
     5
 10
-2754.183126451028
 20
79.477957164548
 30
0.0
 11
-2750.183126451028
 21
79.477957164548
 31
0.0
  0
INSERT
  5
337
  8
回02-寸法
  6
CONTINUOUS
 62
     5
  2
_OPEN
 10
-2754.183126451028
 20
79.477957164548
 30
0.0
 41
2.0
 42
2.0
 43
2.0
  0
INSERT
  5
338
  8
回02-寸法
  6
CONTINUOUS
 62
     5
  2
_OPEN
 10
-2750.183126451028
 20
79.477957164548
 30
0.0
 41
2.0
 42
2.0
 43
2.0
 50
180.0
  0
TEXT
  5
339
  8
回02-寸法
  6
CONTINUOUS
 62
     5
 10
-2746.058126451027
 20
79.977957164548
 30
0.0
 40
2.5
  1
4
1001
ACAD
1000
MTEXTBEGIN
1070
    73
1070
     1
1070
    44
1040
1.0
1070
    74
1070
     0
1000
MTEXTEND
  0
POINT
  5
33A
  8
DEFPOINTS
  6
CONTINUOUS
 62
     0
 10
-2754.183126451028
 20
72.04196177248366
 30
0.0
  0
POINT
  5
33B
  8
DEFPOINTS
  6
CONTINUOUS
 62
     0
 10
-2750.183126451028
 20
72.04196177248366
 30
0.0
  0
POINT
  5
33C
  8
DEFPOINTS
  6
CONTINUOUS
 62
     0
 10
-2750.183126451028
 20
79.477957164548
 30
0.0
  0
ENDBLK
  5
33D
  8
0
 62
     1
  0
BLOCK
  8
0
  2
*D2
 70
     1
 10
0.0
 20
0.0
 30
0.0
  3
*D2
  1

  0
LINE
  5
323
  8
回02-寸法
  6
CONTINUOUS
 62
     5
 10
-2754.183126451029
 20
72.04196177248369
 30
0.0
 11
-2764.750452297985
 21
72.04196177248369
 31
0.0
  0
LINE
  5
324
  8
回02-寸法
  6
CONTINUOUS
 62
     5
 10
-2754.183126451029
 20
68.04196177248369
 30
0.0
 11
-2764.750452297985
 21
68.04196177248369
 31
0.0
  0
LINE
  5
325
  8
回02-寸法
  6
CONTINUOUS
 62
     5
 10
-2763.750452297984
 20
74.04196177248369
 30
0.0
 11
-2763.750452297984
 21
76.04196177248368
 31
0.0
  0
LINE
  5
326
  8
回02-寸法
  6
CONTINUOUS
 62
     5
 10
-2763.750452297984
 20
66.04196177248368
 30
0.0
 11
-2763.750452297984
 21
61.79196177248369
 31
0.0
  0
LINE
  5
327
  8
回02-寸法
  6
CONTINUOUS
 62
     5
 10
-2763.750452297984
 20
72.04196177248369
 30
0.0
 11
-2763.750452297984
 21
68.04196177248369
 31
0.0
  0
INSERT
  5
328
  8
回02-寸法
  6
CONTINUOUS
 62
     5
  2
_OPEN
 10
-2763.750452297984
 20
72.04196177248369
 30
0.0
 41
2.0
 42
2.0
 43
2.0
 50
270.0
  0
INSERT
  5
329
  8
回02-寸法
  6
CONTINUOUS
 62
     5
  2
_OPEN
 10
-2763.750452297984
 20
68.04196177248369
 30
0.0
 41
2.0
 42
2.0
 43
2.0
 50
90.0
  0
TEXT
  5
32A
  8
回02-寸法
  6
CONTINUOUS
 62
     5
 10
-2764.250452297984
 20
61.91696177248423
 30
0.0
 40
2.5
  1
4
 50
90.0
1001
ACAD
1000
MTEXTBEGIN
1070
    73
1070
     1
1070
    44
1040
1.0
1070
    74
1070
     0
1000
MTEXTEND
  0
POINT
  5
32B
  8
DEFPOINTS
  6
CONTINUOUS
 62
     0
 10
-2754.183126451029
 20
72.04196177248369
 30
0.0
  0
POINT
  5
32C
  8
DEFPOINTS
  6
CONTINUOUS
 62
     0
 10
-2754.183126451029
 20
68.04196177248369
 30
0.0
  0
POINT
  5
32D
  8
DEFPOINTS
  6
CONTINUOUS
 62
     0
 10
-2763.750452297984
 20
68.04196177248369
 30
0.0
  0
ENDBLK
  5
32E
  8
0
 62
     1
  0
BLOCK
  8
0
  2
*D3
 70
     1
 10
0.0
 20
0.0
 30
0.0
  3
*D3
  1

  0
LINE
  5
2E3
  8
回02-寸法
  6
CONTINUOUS
 62
     5
 10
-2640.27904368118
 20
106.2939617724835
 30
0.0
 11
-2640.27904368118
 21
115.9305480897136
 31
0.0
  0
LINE
  5
2E4
  8
回02-寸法
  6
CONTINUOUS
 62
     5
 10
-2635.27904368118
 20
106.5939617724835
 30
0.0
 11
-2635.27904368118
 21
115.9305480897136
 31
0.0
  0
LINE
  5
2E5
  8
回02-寸法
  6
CONTINUOUS
 62
     5
 10
-2642.27904368118
 20
114.9305480897136
 30
0.0
 11
-2644.27904368118
 21
114.9305480897136
 31
0.0
  0
LINE
  5
2E6
  8
回02-寸法
  6
CONTINUOUS
 62
     5
 10
-2633.27904368118
 20
114.9305480897136
 30
0.0
 11
-2622.803752751062
 21
114.9305480897136
 31
0.0
  0
LINE
  5
2E7
  8
回02-寸法
  6
CONTINUOUS
 62
     5
 10
-2640.27904368118
 20
114.9305480897136
 30
0.0
 11
-2635.27904368118
 21
114.9305480897136
 31
0.0
  0
INSERT
  5
2E8
  8
回02-寸法
  6
CONTINUOUS
 62
     5
  2
_OPEN
 10
-2640.27904368118
 20
114.9305480897136
 30
0.0
 41
2.0
 42
2.0
 43
2.0
  0
INSERT
  5
2E9
  8
回02-寸法
  6
CONTINUOUS
 62
     5
  2
_OPEN
 10
-2635.27904368118
 20
114.9305480897136
 30
0.0
 41
2.0
 42
2.0
 43
2.0
 50
180.0
  0
INSERT
  5
2EA
  8
回02-寸法
  6
CONTINUOUS
 62
     5
 66
     1
  2
*X47
 10
0.0
 20
0.0
 30
0.0
  0
SEQEND
  5
468
  8
回07-寸法
  6
CONTINUOUS
 62
     1
  0
POINT
  5
2EB
  8
DEFPOINTS
  6
CONTINUOUS
 62
     0
 10
-2640.27904368118
 20
106.2939617724835
 30
0.0
  0
POINT
  5
2EC
  8
DEFPOINTS
  6
CONTINUOUS
 62
     0
 10
-2635.27904368118
 20
106.5939617724835
 30
0.0
  0
POINT
  5
2ED
  8
DEFPOINTS
  6
CONTINUOUS
 62
     0
 10
-2635.27904368118
 20
114.9305480897136
 30
0.0
  0
ENDBLK
  5
2EE
  8
0
 62
     1
  0
BLOCK
  8
0
  2
*D4
 70
     1
 10
0.0
 20
0.0
 30
0.0
  3
*D4
  1

  0
LINE
  5
2D4
  8
回02-寸法
  6
CONTINUOUS
 62
     5
 10
-2637.779043681181
 20
106.5939617724836
 30
0.0
 11
-2644.140846690707
 21
106.5939617724836
 31
0.0
  0
LINE
  5
2D5
  8
回02-寸法
  6
CONTINUOUS
 62
     5
 10
-2637.779043681181
 20
106.2939617724835
 30
0.0
 11
-2644.140846690707
 21
106.2939617724835
 31
0.0
  0
LINE
  5
2D6
  8
回02-寸法
  6
CONTINUOUS
 62
     5
 10
-2643.140846690707
 20
108.5939617724836
 30
0.0
 11
-2643.140846690707
 21
110.5939617724836
 31
0.0
  0
LINE
  5
2D7
  8
回02-寸法
  6
CONTINUOUS
 62
     5
 10
-2643.140846690707
 20
104.2939617724835
 30
0.0
 11
-2643.140846690707
 21
95.79593027642054
 31
0.0
  0
LINE
  5
2D8
  8
回02-寸法
  6
CONTINUOUS
 62
     5
 10
-2643.140846690707
 20
106.5939617724836
 30
0.0
 11
-2643.140846690707
 21
106.2939617724835
 31
0.0
  0
INSERT
  5
2D9
  8
回02-寸法
  6
CONTINUOUS
 62
     5
  2
_OPEN
 10
-2643.140846690707
 20
106.5939617724836
 30
0.0
 41
2.0
 42
2.0
 43
2.0
 50
270.0
  0
INSERT
  5
2DA
  8
回02-寸法
  6
CONTINUOUS
 62
     5
  2
_OPEN
 10
-2643.140846690707
 20
106.2939617724835
 30
0.0
 41
2.0
 42
2.0
 43
2.0
 50
90.0
  0
TEXT
  5
2DB
  8
回02-寸法
  6
CONTINUOUS
 62
     5
 10
-2643.765846690706
 20
95.91994602445266
 30
0.0
 40
2.5
  1
(0.3)
 50
90.0
1001
ACAD
1000
MTEXTBEGIN
1070
    73
1070
     1
1070
    44
1040
1.0
1070
    74
1070
     0
1000
MTEXTEND
  0
POINT
  5
2DC
  8
DEFPOINTS
  6
CONTINUOUS
 62
     0
 10
-2637.779043681181
 20
106.5939617724836
 30
0.0
  0
POINT
  5
2DD
  8
DEFPOINTS
  6
CONTINUOUS
 62
     0
 10
-2637.779043681181
 20
106.2939617724835
 30
0.0
  0
POINT
  5
2DE
  8
DEFPOINTS
  6
CONTINUOUS
 62
     0
 10
-2643.140846690707
 20
106.2939617724835
 30
0.0
  0
ENDBLK
  5
2DF
  8
0
 62
     1
  0
BLOCK
  8
0
  2
*D5
 70
     1
 10
0.0
 20
0.0
 30
0.0
  3
*D5
  1

  0
LINE
  5
2C5
  8
回02-寸法
  6
CONTINUOUS
 62
     5
 10
-2637.779043681181
 20
39.48996177248377
 30
0.0
 11
-2644.140846690695
 21
39.48996177248377
 31
0.0
  0
LINE
  5
2C6
  8
回02-寸法
  6
CONTINUOUS
 62
     5
 10
-2638.779043681181
 20
39.78996177248378
 30
0.0
 11
-2644.140846690695
 21
39.78996177248378
 31
0.0
  0
LINE
  5
2C7
  8
回02-寸法
  6
CONTINUOUS
 62
     5
 10
-2643.140846690695
 20
37.48996177248376
 30
0.0
 11
-2643.140846690695
 21
35.48996177248376
 31
0.0
  0
LINE
  5
2C8
  8
回02-寸法
  6
CONTINUOUS
 62
     5
 10
-2643.140846690695
 20
41.78996177248377
 30
0.0
 11
-2643.140846690695
 21
50.93125519287221
 31
0.0
  0
LINE
  5
2C9
  8
回02-寸法
  6
CONTINUOUS
 62
     5
 10
-2643.140846690695
 20
39.48996177248376
 30
0.0
 11
-2643.140846690695
 21
39.78996177248377
 31
0.0
  0
INSERT
  5
2CA
  8
回02-寸法
  6
CONTINUOUS
 62
     5
  2
_OPEN
 10
-2643.140846690695
 20
39.48996177248376
 30
0.0
 41
2.0
 42
2.0
 43
2.0
 50
90.0
  0
INSERT
  5
2CB
  8
回02-寸法
  6
CONTINUOUS
 62
     5
  2
_OPEN
 10
-2643.140846690695
 20
39.78996177248377
 30
0.0
 41
2.0
 42
2.0
 43
2.0
 50
270.0
  0
TEXT
  5
2CC
  8
回02-寸法
  6
CONTINUOUS
 62
     5
 10
-2643.765846690695
 20
44.55723944484134
 30
0.0
 40
2.5
  1
(0.3)
 50
90.0
1001
ACAD
1000
MTEXTBEGIN
1070
    73
1070
     1
1070
    44
1040
1.0
1070
    74
1070
     0
1000
MTEXTEND
  0
POINT
  5
2CD
  8
DEFPOINTS
  6
CONTINUOUS
 62
     0
 10
-2637.779043681181
 20
39.48996177248377
 30
0.0
  0
POINT
  5
2CE
  8
DEFPOINTS
  6
CONTINUOUS
 62
     0
 10
-2638.779043681181
 20
39.78996177248378
 30
0.0
  0
POINT
  5
2CF
  8
DEFPOINTS
  6
CONTINUOUS
 62
     0
 10
-2643.140846690695
 20
39.78996177248377
 30
0.0
  0
ENDBLK
  5
2D0
  8
0
 62
     1
  0
BLOCK
  8
0
  2
*D6
 70
     1
 10
0.0
 20
0.0
 30
0.0
  3
*D6
  1

  0
LINE
  5
2B8
  8
回02-寸法
  6
CONTINUOUS
 62
     5
 10
-2639.979043681182
 20
-20.51008173828388
 30
0.0
 11
-2650.195965862175
 21
-20.51008173828388
 31
0.0
  0
LINE
  5
2B9
  8
回02-寸法
  6
CONTINUOUS
 62
     5
 10
-2639.979043681182
 20
-10.51008173828387
 30
0.0
 11
-2650.195965862175
 21
-10.51008173828387
 31
0.0
  0
LINE
  5
2BA
  8
回02-寸法
  6
CONTINUOUS
 62
     5
 10
-2649.195965862175
 20
-18.51008173828388
 30
0.0
 11
-2649.195965862175
 21
-12.51008173828388
 31
0.0
  0
INSERT
  5
2BB
  8
回02-寸法
  6
CONTINUOUS
 62
     5
  2
_OPEN
 10
-2649.195965862175
 20
-20.51008173828388
 30
0.0
 41
2.0
 42
2.0
 43
2.0
 50
270.0
  0
INSERT
  5
2BC
  8
回02-寸法
  6
CONTINUOUS
 62
     5
  2
_OPEN
 10
-2649.195965862175
 20
-10.51008173828388
 30
0.0
 41
2.0
 42
2.0
 43
2.0
 50
90.0
  0
TEXT
  5
2BD
  8
回02-寸法
  6
CONTINUOUS
 62
     5
 10
-2649.820965862174
 20
-18.01008173828313
 30
0.0
 40
2.5
  1
(10)
 50
90.0
1001
ACAD
1000
MTEXTBEGIN
1070
    73
1070
     1
1070
    44
1040
1.0
1070
    74
1070
     0
1000
MTEXTEND
  0
POINT
  5
2BE
  8
DEFPOINTS
  6
CONTINUOUS
 62
     0
 10
-2639.979043681182
 20
-20.51008173828388
 30
0.0
  0
POINT
  5
2BF
  8
DEFPOINTS
  6
CONTINUOUS
 62
     0
 10
-2639.979043681182
 20
-10.51008173828387
 30
0.0
  0
POINT
  5
2C0
  8
DEFPOINTS
  6
CONTINUOUS
 62
     0
 10
-2649.195965862175
 20
-10.51008173828388
 30
0.0
  0
ENDBLK
  5
2C1
  8
0
 62
     1
  0
BLOCK
  8
0
  2
*D7
 70
     1
 10
0.0
 20
0.0
 30
0.0
  3
*D7
  1

  0
LINE
  5
2A9
  8
回02-寸法
  6
CONTINUOUS
 62
     5
 10
-2637.279043681181
 20
-15.51008173828388
 30
0.0
 11
-2630.431309163771
 21
-15.51008173828388
 31
0.0
  0
LINE
  5
2AA
  8
回02-寸法
  6
CONTINUOUS
 62
     5
 10
-2637.779043681181
 20
-20.51008173828388
 30
0.0
 11
-2630.431309163771
 21
-20.51008173828388
 31
0.0
  0
LINE
  5
2AB
  8
回02-寸法
  6
CONTINUOUS
 62
     5
 10
-2631.431309163771
 20
-22.51008173828388
 30
0.0
 11
-2631.431309163771
 21
-24.51008173828388
 31
0.0
  0
LINE
  5
2AC
  8
回02-寸法
  6
CONTINUOUS
 62
     5
 10
-2631.431309163771
 20
-13.51008173828388
 30
0.0
 11
-2631.431309163771
 21
-7.505805042987996
 31
0.0
  0
LINE
  5
2AD
  8
回02-寸法
  6
CONTINUOUS
 62
     5
 10
-2631.431309163771
 20
-20.51008173828388
 30
0.0
 11
-2631.431309163771
 21
-15.51008173828388
 31
0.0
  0
INSERT
  5
2AE
  8
回02-寸法
  6
CONTINUOUS
 62
     5
  2
_OPEN
 10
-2631.431309163771
 20
-20.51008173828388
 30
0.0
 41
2.0
 42
2.0
 43
2.0
 50
90.0
  0
INSERT
  5
2AF
  8
回02-寸法
  6
CONTINUOUS
 62
     5
  2
_OPEN
 10
-2631.431309163771
 20
-15.51008173828388
 30
0.0
 41
2.0
 42
2.0
 43
2.0
 50
270.0
  0
TEXT
  5
2B0
  8
回02-寸法
  6
CONTINUOUS
 62
     5
 10
-2631.931309163771
 20
-9.432581738283715
 30
0.0
 40
2.5
  1
5
 50
90.0
1001
ACAD
1000
MTEXTBEGIN
1070
    73
1070
     1
1070
    44
1040
1.0
1070
    74
1070
     0
1000
MTEXTEND
  0
POINT
  5
2B1
  8
DEFPOINTS
  6
CONTINUOUS
 62
     0
 10
-2637.279043681181
 20
-15.51008173828388
 30
0.0
  0
POINT
  5
2B2
  8
DEFPOINTS
  6
CONTINUOUS
 62
     0
 10
-2637.779043681181
 20
-20.51008173828388
 30
0.0
  0
POINT
  5
2B3
  8
DEFPOINTS
  6
CONTINUOUS
 62
     0
 10
-2631.431309163771
 20
-20.51008173828388
 30
0.0
  0
ENDBLK
  5
2B4
  8
0
 62
     1
  0
BLOCK
  8
0
  2
*D8
 70
     1
 10
0.0
 20
0.0
 30
0.0
  3
*D8
  1

  0
LINE
  5
29A
  8
回02-寸法
  6
CONTINUOUS
 62
     5
 10
-2637.77904368118
 20
-20.51008173828387
 30
0.0
 11
-2637.77904368118
 21
-30.30807710392861
 31
0.0
  0
LINE
  5
29B
  8
回02-寸法
  6
CONTINUOUS
 62
     5
 10
-2639.979043681181
 20
-20.51008173828387
 30
0.0
 11
-2639.979043681181
 21
-30.30807710392861
 31
0.0
  0
LINE
  5
29C
  8
回02-寸法
  6
CONTINUOUS
 62
     5
 10
-2635.77904368118
 20
-29.30807710392861
 30
0.0
 11
-2633.77904368118
 21
-29.30807710392861
 31
0.0
  0
LINE
  5
29D
  8
回02-寸法
  6
CONTINUOUS
 62
     5
 10
-2641.97904368118
 20
-29.30807710392861
 30
0.0
 11
-2653.841963730626
 21
-29.30807710392861
 31
0.0
  0
LINE
  5
29E
  8
回02-寸法
  6
CONTINUOUS
 62
     5
 10
-2637.77904368118
 20
-29.30807710392861
 30
0.0
 11
-2639.979043681181
 21
-29.30807710392861
 31
0.0
  0
INSERT
  5
29F
  8
回02-寸法
  6
CONTINUOUS
 62
     5
  2
_OPEN
 10
-2637.77904368118
 20
-29.30807710392861
 30
0.0
 41
2.0
 42
2.0
 43
2.0
 50
180.0
  0
INSERT
  5
2A0
  8
回02-寸法
  6
CONTINUOUS
 62
     5
  2
_OPEN
 10
-2639.979043681181
 20
-29.30807710392861
 30
0.0
 41
2.0
 42
2.0
 43
2.0
  0
INSERT
  5
2A1
  8
回02-寸法
  6
CONTINUOUS
 62
     5
 66
     1
  2
*X48
 10
0.0
 20
0.0
 30
0.0
  0
SEQEND
  5
46E
  8
回07-寸法
  6
CONTINUOUS
 62
     1
  0
POINT
  5
2A2
  8
DEFPOINTS
  6
CONTINUOUS
 62
     0
 10
-2637.77904368118
 20
-20.51008173828387
 30
0.0
  0
POINT
  5
2A3
  8
DEFPOINTS
  6
CONTINUOUS
 62
     0
 10
-2639.979043681181
 20
-20.51008173828387
 30
0.0
  0
POINT
  5
2A4
  8
DEFPOINTS
  6
CONTINUOUS
 62
     0
 10
-2639.979043681181
 20
-29.30807710392861
 30
0.0
  0
ENDBLK
  5
2A5
  8
0
 62
     1
  0
BLOCK
  8
0
  2
*D9
 70
     1
 10
0.0
 20
0.0
 30
0.0
  3
*D9
  1

  0
LINE
  5
276
  8
回02-寸法
  6
CONTINUOUS
 62
     5
 10
-2805.953126451028
 20
103.2219617724836
 30
0.0
 11
-2805.953126451028
 21
122.0125709189238
 31
0.0
  0
LINE
  5
277
  8
回02-寸法
  6
CONTINUOUS
 62
     5
 10
-2710.413126451028
 20
103.2219617724841
 30
0.0
 11
-2710.413126451028
 21
122.0125709189238
 31
0.0
  0
LINE
  5
278
  8
回02-寸法
  6
CONTINUOUS
 62
     5
 10
-2803.953126451027
 20
121.0125709189238
 30
0.0
 11
-2712.413126451028
 21
121.0125709189238
 31
0.0
  0
INSERT
  5
279
  8
回02-寸法
  6
CONTINUOUS
 62
     5
  2
_OPEN
 10
-2805.953126451028
 20
121.0125709189238
 30
0.0
 41
2.0
 42
2.0
 43
2.0
 50
180.0
  0
INSERT
  5
27A
  8
回02-寸法
  6
CONTINUOUS
 62
     5
  2
_OPEN
 10
-2710.413126451028
 20
121.0125709189238
 30
0.0
 41
2.0
 42
2.0
 43
2.0
  0
TEXT
  5
27B
  8
回02-寸法
  6
CONTINUOUS
 62
     5
 10
-2773.066660246361
 20
121.6375709189238
 30
0.0
 40
2.5
  1
95.54 (Active Area)
1001
ACAD
1000
MTEXTBEGIN
1070
    73
1070
     1
1070
    44
1040
1.0
1070
    74
1070
     0
1000
MTEXTEND
  0
POINT
  5
27C
  8
DEFPOINTS
  6
CONTINUOUS
 62
     0
 10
-2805.953126451028
 20
103.2219617724836
 30
0.0
  0
POINT
  5
27D
  8
DEFPOINTS
  6
CONTINUOUS
 62
     0
 10
-2710.413126451028
 20
103.2219617724841
 30
0.0
  0
POINT
  5
27E
  8
DEFPOINTS
  6
CONTINUOUS
 62
     0
 10
-2710.413126451028
 20
121.0125709189238
 30
0.0
  0
ENDBLK
  5
27F
  8
0
 62
     1
  0
BLOCK
  8
0
  2
*D10
 70
     1
 10
0.0
 20
0.0
 30
0.0
  3
*D10
  1

  0
LINE
  5
269
  8
回02-寸法
  6
CONTINUOUS
 62
     5
 10
-2806.953126451027
 20
103.7219617724836
 30
0.0
 11
-2806.953126451027
 21
127.0125709189238
 31
0.0
  0
LINE
  5
26A
  8
回02-寸法
  6
CONTINUOUS
 62
     5
 10
-2709.413126451027
 20
103.7219617724836
 30
0.0
 11
-2709.413126451027
 21
127.0125709189238
 31
0.0
  0
LINE
  5
26B
  8
回02-寸法
  6
CONTINUOUS
 62
     5
 10
-2804.953126451028
 20
126.0125709189238
 30
0.0
 11
-2711.413126451028
 21
126.0125709189238
 31
0.0
  0
INSERT
  5
26C
  8
回02-寸法
  6
CONTINUOUS
 62
     5
  2
_OPEN
 10
-2806.953126451027
 20
126.0125709189238
 30
0.0
 41
2.0
 42
2.0
 43
2.0
 50
180.0
  0
INSERT
  5
26D
  8
回02-寸法
  6
CONTINUOUS
 62
     5
  2
_OPEN
 10
-2709.413126451027
 20
126.0125709189238
 30
0.0
 41
2.0
 42
2.0
 43
2.0
  0
TEXT
  5
26E
  8
回02-寸法
  6
CONTINUOUS
 62
     5
 10
-2773.941660246361
 20
127.1828755273084
 30
0.0
 40
2.5
  1
97.54 (Viewing Area)
1001
ACAD
1000
MTEXTBEGIN
1070
    73
1070
     1
1070
    44
1040
1.0
1070
    74
1070
     0
1000
MTEXTEND
  0
POINT
  5
26F
  8
DEFPOINTS
  6
CONTINUOUS
 62
     0
 10
-2806.953126451027
 20
103.7219617724836
 30
0.0
  0
POINT
  5
270
  8
DEFPOINTS
  6
CONTINUOUS
 62
     0
 10
-2709.413126451027
 20
103.7219617724836
 30
0.0
  0
POINT
  5
271
  8
DEFPOINTS
  6
CONTINUOUS
 62
     0
 10
-2709.413126451027
 20
126.0125709189238
 30
0.0
  0
ENDBLK
  5
272
  8
0
 62
     1
  0
BLOCK
  8
0
  2
*D11
 70
     1
 10
0.0
 20
0.0
 30
0.0
  3
*D11
  1

  0
LINE
  5
25C
  8
回02-寸法
  6
CONTINUOUS
 62
     5
 10
-2810.933126451028
 20
106.5939617724836
 30
0.0
 11
-2810.933126451028
 21
137.0125709189238
 31
0.0
  0
LINE
  5
25D
  8
回02-寸法
  6
CONTINUOUS
 62
     5
 10
-2705.533126451027
 20
106.5939617724836
 30
0.0
 11
-2705.533126451027
 21
137.0125709189238
 31
0.0
  0
LINE
  5
25E
  8
回02-寸法
  6
CONTINUOUS
 62
     5
 10
-2808.933126451027
 20
136.0125709189238
 30
0.0
 11
-2707.533126451028
 21
136.0125709189238
 31
0.0
  0
INSERT
  5
25F
  8
回02-寸法
  6
CONTINUOUS
 62
     5
  2
_OPEN
 10
-2810.933126451028
 20
136.0125709189238
 30
0.0
 41
2.0
 42
2.0
 43
2.0
 50
180.0
  0
INSERT
  5
260
  8
回02-寸法
  6
CONTINUOUS
 62
     5
  2
_OPEN
 10
-2705.533126451027
 20
136.0125709189238
 30
0.0
 41
2.0
 42
2.0
 43
2.0
  0
INSERT
  5
261
  8
回02-寸法
  6
CONTINUOUS
 62
     5
 66
     1
  2
*X49
 10
0.0
 20
0.0
 30
0.0
  0
SEQEND
  5
474
  8
回07-寸法
  6
CONTINUOUS
 62
     1
  0
POINT
  5
262
  8
DEFPOINTS
  6
CONTINUOUS
 62
     0
 10
-2810.933126451028
 20
106.5939617724836
 30
0.0
  0
POINT
  5
263
  8
DEFPOINTS
  6
CONTINUOUS
 62
     0
 10
-2705.533126451027
 20
106.5939617724836
 30
0.0
  0
POINT
  5
264
  8
DEFPOINTS
  6
CONTINUOUS
 62
     0
 10
-2705.533126451027
 20
136.0125709189238
 30
0.0
  0
ENDBLK
  5
265
  8
0
 62
     1
  0
BLOCK
  8
0
  2
*D12
 70
     1
 10
0.0
 20
0.0
 30
0.0
  3
*D12
  1

  0
LINE
  5
24D
  8
回02-寸法
  6
CONTINUOUS
 62
     5
 10
-2805.953126451028
 20
103.2219617724836
 30
0.0
 11
-2805.953126451028
 21
122.0125709189238
 31
0.0
  0
LINE
  5
24E
  8
回02-寸法
  6
CONTINUOUS
 62
     5
 10
-2810.933126451028
 20
106.5939617724836
 30
0.0
 11
-2810.933126451028
 21
122.0125709189238
 31
0.0
  0
LINE
  5
24F
  8
回02-寸法
  6
CONTINUOUS
 62
     5
 10
-2803.953126451027
 20
121.0125709189238
 30
0.0
 11
-2801.953126451028
 21
121.0125709189238
 31
0.0
  0
LINE
  5
250
  8
回02-寸法
  6
CONTINUOUS
 62
     5
 10
-2812.933126451028
 20
121.0125709189238
 30
0.0
 11
-2821.441862277263
 21
121.0125709189238
 31
0.0
  0
LINE
  5
251
  8
回02-寸法
  6
CONTINUOUS
 62
     5
 10
-2805.953126451028
 20
121.0125709189238
 30
0.0
 11
-2810.933126451028
 21
121.0125709189238
 31
0.0
  0
INSERT
  5
252
  8
回02-寸法
  6
CONTINUOUS
 62
     5
  2
_OPEN
 10
-2805.953126451028
 20
121.0125709189238
 30
0.0
 41
2.0
 42
2.0
 43
2.0
 50
180.0
  0
INSERT
  5
253
  8
回02-寸法
  6
CONTINUOUS
 62
     5
  2
_OPEN
 10
-2810.933126451028
 20
121.0125709189238
 30
0.0
 41
2.0
 42
2.0
 43
2.0
  0
TEXT
  5
254
  8
回02-寸法
  6
CONTINUOUS
 62
     5
 10
-2821.317007324804
 20
121.5125709189238
 30
0.0
 40
2.5
  1
4.98
1001
ACAD
1000
MTEXTBEGIN
1070
    73
1070
     1
1070
    44
1040
1.0
1070
    74
1070
     0
1000
MTEXTEND
  0
POINT
  5
255
  8
DEFPOINTS
  6
CONTINUOUS
 62
     0
 10
-2805.953126451028
 20
103.2219617724836
 30
0.0
  0
POINT
  5
256
  8
DEFPOINTS
  6
CONTINUOUS
 62
     0
 10
-2810.933126451028
 20
106.5939617724836
 30
0.0
  0
POINT
  5
257
  8
DEFPOINTS
  6
CONTINUOUS
 62
     0
 10
-2810.933126451028
 20
121.0125709189238
 30
0.0
  0
ENDBLK
  5
258
  8
0
 62
     1
  0
BLOCK
  8
0
  2
*D13
 70
     1
 10
0.0
 20
0.0
 30
0.0
  3
*D13
  1

  0
LINE
  5
23E
  8
回02-寸法
  6
CONTINUOUS
 62
     5
 10
-2806.953126451027
 20
103.7219617724836
 30
0.0
 11
-2806.953126451027
 21
127.0125709189238
 31
0.0
  0
LINE
  5
23F
  8
回02-寸法
  6
CONTINUOUS
 62
     5
 10
-2810.933126451028
 20
106.5939617724836
 30
0.0
 11
-2810.933126451028
 21
127.0125709189238
 31
0.0
  0
LINE
  5
240
  8
回02-寸法
  6
CONTINUOUS
 62
     5
 10
-2804.953126451028
 20
126.0125709189238
 30
0.0
 11
-2802.953126451028
 21
126.0125709189238
 31
0.0
  0
LINE
  5
241
  8
回02-寸法
  6
CONTINUOUS
 62
     5
 10
-2812.933126451028
 20
126.0125709189238
 30
0.0
 11
-2821.191862277263
 21
126.0125709189238
 31
0.0
  0
LINE
  5
242
  8
回02-寸法
  6
CONTINUOUS
 62
     5
 10
-2806.953126451027
 20
126.0125709189238
 30
0.0
 11
-2810.933126451028
 21
126.0125709189238
 31
0.0
  0
INSERT
  5
243
  8
回02-寸法
  6
CONTINUOUS
 62
     5
  2
_OPEN
 10
-2806.953126451027
 20
126.0125709189238
 30
0.0
 41
2.0
 42
2.0
 43
2.0
 50
180.0
  0
INSERT
  5
244
  8
回02-寸法
  6
CONTINUOUS
 62
     5
  2
_OPEN
 10
-2810.933126451028
 20
126.0125709189238
 30
0.0
 41
2.0
 42
2.0
 43
2.0
  0
TEXT
  5
245
  8
回02-寸法
  6
CONTINUOUS
 62
     5
 10
-2821.067007324804
 20
126.5125709189238
 30
0.0
 40
2.5
  1
3.98
1001
ACAD
1000
MTEXTBEGIN
1070
    73
1070
     1
1070
    44
1040
1.0
1070
    74
1070
     0
1000
MTEXTEND
  0
POINT
  5
246
  8
DEFPOINTS
  6
CONTINUOUS
 62
     0
 10
-2806.953126451027
 20
103.7219617724836
 30
0.0
  0
POINT
  5
247
  8
DEFPOINTS
  6
CONTINUOUS
 62
     0
 10
-2810.933126451028
 20
106.5939617724836
 30
0.0
  0
POINT
  5
248
  8
DEFPOINTS
  6
CONTINUOUS
 62
     0
 10
-2810.933126451028
 20
126.0125709189238
 30
0.0
  0
ENDBLK
  5
249
  8
0
 62
     1
  0
BLOCK
  8
0
  2
*D14
 70
     1
 10
0.0
 20
0.0
 30
0.0
  3
*D14
  1

  0
LINE
  5
231
  8
回02-寸法
  6
CONTINUOUS
 62
     5
 10
-2807.453126451028
 20
104.5219617724836
 30
0.0
 11
-2807.453126451028
 21
132.0125709189238
 31
0.0
  0
LINE
  5
232
  8
回02-寸法
  6
CONTINUOUS
 62
     5
 10
-2708.913126451027
 20
104.5219617724836
 30
0.0
 11
-2708.913126451027
 21
132.0125709189238
 31
0.0
  0
LINE
  5
233
  8
回02-寸法
  6
CONTINUOUS
 62
     5
 10
-2805.453126451027
 20
131.0125709189238
 30
0.0
 11
-2710.913126451027
 21
131.0125709189238
 31
0.0
  0
INSERT
  5
234
  8
回02-寸法
  6
CONTINUOUS
 62
     5
  2
_OPEN
 10
-2807.453126451028
 20
131.0125709189238
 30
0.0
 41
2.0
 42
2.0
 43
2.0
 50
180.0
  0
INSERT
  5
235
  8
回02-寸法
  6
CONTINUOUS
 62
     5
  2
_OPEN
 10
-2708.913126451027
 20
131.0125709189238
 30
0.0
 41
2.0
 42
2.0
 43
2.0
  0
TEXT
  5
236
  8
回02-寸法
  6
CONTINUOUS
 62
     5
 10
-2762.192152372345
 20
131.5125709189238
 30
0.0
 40
2.5
  1
98.54
1001
ACAD
1000
MTEXTBEGIN
1070
    73
1070
     1
1070
    44
1040
1.0
1070
    74
1070
     0
1000
MTEXTEND
  0
POINT
  5
237
  8
DEFPOINTS
  6
CONTINUOUS
 62
     0
 10
-2807.453126451028
 20
104.5219617724836
 30
0.0
  0
POINT
  5
238
  8
DEFPOINTS
  6
CONTINUOUS
 62
     0
 10
-2708.913126451027
 20
104.5219617724836
 30
0.0
  0
POINT
  5
239
  8
DEFPOINTS
  6
CONTINUOUS
 62
     0
 10
-2708.913126451027
 20
131.0125709189238
 30
0.0
  0
ENDBLK
  5
23A
  8
0
 62
     1
  0
BLOCK
  8
0
  2
*D15
 70
     1
 10
0.0
 20
0.0
 30
0.0
  3
*D15
  1

  0
LINE
  5
222
  8
回02-寸法
  6
CONTINUOUS
 62
     5
 10
-2807.453126451028
 20
104.5219617724836
 30
0.0
 11
-2807.453126451028
 21
132.0125709189238
 31
0.0
  0
LINE
  5
223
  8
回02-寸法
  6
CONTINUOUS
 62
     5
 10
-2810.933126451028
 20
106.5939617724836
 30
0.0
 11
-2810.933126451028
 21
132.0125709189238
 31
0.0
  0
LINE
  5
224
  8
回02-寸法
  6
CONTINUOUS
 62
     5
 10
-2805.453126451027
 20
131.0125709189238
 30
0.0
 11
-2803.453126451028
 21
131.0125709189238
 31
0.0
  0
LINE
  5
225
  8
回02-寸法
  6
CONTINUOUS
 62
     5
 10
-2812.933126451028
 20
131.0125709189238
 30
0.0
 11
-2848.376384325043
 21
131.0125709189238
 31
0.0
  0
LINE
  5
226
  8
回02-寸法
  6
CONTINUOUS
 62
     5
 10
-2807.453126451028
 20
131.0125709189238
 30
0.0
 11
-2810.933126451028
 21
131.0125709189238
 31
0.0
  0
INSERT
  5
227
  8
回02-寸法
  6
CONTINUOUS
 62
     5
  2
_OPEN
 10
-2807.453126451028
 20
131.0125709189238
 30
0.0
 41
2.0
 42
2.0
 43
2.0
 50
180.0
  0
INSERT
  5
228
  8
回02-寸法
  6
CONTINUOUS
 62
     5
  2
_OPEN
 10
-2810.933126451028
 20
131.0125709189238
 30
0.0
 41
2.0
 42
2.0
 43
2.0
  0
TEXT
  5
229
  8
回02-寸法
  6
CONTINUOUS
 62
     5
 10
-2848.252368577012
 20
131.6406959189238
 30
0.0
 40
2.5
  1
(Insulation Area) 3.48 
1001
ACAD
1000
MTEXTBEGIN
1070
    73
1070
     1
1070
    44
1040
1.0
1070
    74
1070
     0
1000
MTEXTEND
  0
POINT
  5
22A
  8
DEFPOINTS
  6
CONTINUOUS
 62
     0
 10
-2807.453126451028
 20
104.5219617724836
 30
0.0
  0
POINT
  5
22B
  8
DEFPOINTS
  6
CONTINUOUS
 62
     0
 10
-2810.933126451028
 20
106.5939617724836
 30
0.0
  0
POINT
  5
22C
  8
DEFPOINTS
  6
CONTINUOUS
 62
     0
 10
-2810.933126451028
 20
131.0125709189238
 30
0.0
  0
ENDBLK
  5
22D
  8
0
 62
     1
  0
BLOCK
  8
0
  2
*D16
 70
     1
 10
0.0
 20
0.0
 30
0.0
  3
*D16
  1

  0
LINE
  5
213
  8
回02-寸法
  6
CONTINUOUS
 62
     5
 10
-2705.533126451027
 20
106.5939617724836
 30
0.0
 11
-2705.533126451027
 21
132.0125709189238
 31
0.0
  0
LINE
  5
214
  8
回02-寸法
  6
CONTINUOUS
 62
     5
 10
-2708.913126451027
 20
104.5219617724836
 30
0.0
 11
-2708.913126451027
 21
132.0125709189238
 31
0.0
  0
LINE
  5
215
  8
回02-寸法
  6
CONTINUOUS
 62
     5
 10
-2710.913126451027
 20
131.0125709189238
 30
0.0
 11
-2712.913126451027
 21
131.0125709189238
 31
0.0
  0
LINE
  5
216
  8
回02-寸法
  6
CONTINUOUS
 62
     5
 10
-2703.533126451028
 20
131.0125709189238
 30
0.0
 11
-2693.285094954964
 21
131.0125709189238
 31
0.0
  0
LINE
  5
217
  8
回02-寸法
  6
CONTINUOUS
 62
     5
 10
-2708.913126451027
 20
131.0125709189238
 30
0.0
 11
-2705.533126451027
 21
131.0125709189238
 31
0.0
  0
INSERT
  5
218
  8
回02-寸法
  6
CONTINUOUS
 62
     5
  2
_OPEN
 10
-2708.913126451027
 20
131.0125709189238
 30
0.0
 41
2.0
 42
2.0
 43
2.0
  0
INSERT
  5
219
  8
回02-寸法
  6
CONTINUOUS
 62
     5
  2
_OPEN
 10
-2705.533126451027
 20
131.0125709189238
 30
0.0
 41
2.0
 42
2.0
 43
2.0
 50
180.0
  0
TEXT
  5
21A
  8
回02-寸法
  6
CONTINUOUS
 62
     5
 10
-2701.409110702996
 20
131.6375709189238
 30
0.0
 40
2.5
  1
(3.38)
1001
ACAD
1000
MTEXTBEGIN
1070
    73
1070
     1
1070
    44
1040
1.0
1070
    74
1070
     0
1000
MTEXTEND
  0
POINT
  5
21B
  8
DEFPOINTS
  6
CONTINUOUS
 62
     0
 10
-2705.533126451027
 20
106.5939617724836
 30
0.0
  0
POINT
  5
21C
  8
DEFPOINTS
  6
CONTINUOUS
 62
     0
 10
-2708.913126451027
 20
104.5219617724836
 30
0.0
  0
POINT
  5
21D
  8
DEFPOINTS
  6
CONTINUOUS
 62
     0
 10
-2708.913126451027
 20
131.0125709189238
 30
0.0
  0
ENDBLK
  5
21E
  8
0
 62
     1
  0
BLOCK
  8
0
  2
*D17
 70
     1
 10
0.0
 20
0.0
 30
0.0
  3
*D17
  1

  0
LINE
  5
204
  8
回02-寸法
  6
CONTINUOUS
 62
     5
 10
-2710.413126451028
 20
103.2219617724836
 30
0.0
 11
-2710.413126451028
 21
122.0125709189238
 31
0.0
  0
LINE
  5
205
  8
回02-寸法
  6
CONTINUOUS
 62
     5
 10
-2705.533126451027
 20
106.5939617724836
 30
0.0
 11
-2705.533126451027
 21
122.0125709189238
 31
0.0
  0
LINE
  5
206
  8
回02-寸法
  6
CONTINUOUS
 62
     5
 10
-2712.413126451028
 20
121.0125709189238
 30
0.0
 11
-2714.413126451028
 21
121.0125709189238
 31
0.0
  0
LINE
  5
207
  8
回02-寸法
  6
CONTINUOUS
 62
     5
 10
-2703.533126451028
 20
121.0125709189238
 30
0.0
 11
-2693.035094954965
 21
121.0125709189238
 31
0.0
  0
LINE
  5
208
  8
回02-寸法
  6
CONTINUOUS
 62
     5
 10
-2710.413126451028
 20
121.0125709189238
 30
0.0
 11
-2705.533126451027
 21
121.0125709189238
 31
0.0
  0
INSERT
  5
209
  8
回02-寸法
  6
CONTINUOUS
 62
     5
  2
_OPEN
 10
-2710.413126451028
 20
121.0125709189238
 30
0.0
 41
2.0
 42
2.0
 43
2.0
  0
INSERT
  5
20A
  8
回02-寸法
  6
CONTINUOUS
 62
     5
  2
_OPEN
 10
-2705.533126451027
 20
121.0125709189238
 30
0.0
 41
2.0
 42
2.0
 43
2.0
 50
180.0
  0
TEXT
  5
20B
  8
回02-寸法
  6
CONTINUOUS
 62
     5
 10
-2701.409110702996
 20
121.6375709189238
 30
0.0
 40
2.5
  1
(4.88)
1001
ACAD
1000
MTEXTBEGIN
1070
    73
1070
     1
1070
    44
1040
1.0
1070
    74
1070
     0
1000
MTEXTEND
  0
POINT
  5
20C
  8
DEFPOINTS
  6
CONTINUOUS
 62
     0
 10
-2710.413126451028
 20
103.2219617724836
 30
0.0
  0
POINT
  5
20D
  8
DEFPOINTS
  6
CONTINUOUS
 62
     0
 10
-2705.533126451027
 20
106.5939617724836
 30
0.0
  0
POINT
  5
20E
  8
DEFPOINTS
  6
CONTINUOUS
 62
     0
 10
-2705.533126451027
 20
121.0125709189238
 30
0.0
  0
ENDBLK
  5
20F
  8
0
 62
     1
  0
BLOCK
  8
0
  2
*D18
 70
     1
 10
0.0
 20
0.0
 30
0.0
  3
*D18
  1

  0
LINE
  5
1F5
  8
回02-寸法
  6
CONTINUOUS
 62
     5
 10
-2709.413126451027
 20
103.7219617724836
 30
0.0
 11
-2709.413126451027
 21
127.0125709189238
 31
0.0
  0
LINE
  5
1F6
  8
回02-寸法
  6
CONTINUOUS
 62
     5
 10
-2705.533126451027
 20
106.5939617724836
 30
0.0
 11
-2705.533126451027
 21
127.0125709189238
 31
0.0
  0
LINE
  5
1F7
  8
回02-寸法
  6
CONTINUOUS
 62
     5
 10
-2711.413126451028
 20
126.0125709189238
 30
0.0
 11
-2713.413126451027
 21
126.0125709189238
 31
0.0
  0
LINE
  5
1F8
  8
回02-寸法
  6
CONTINUOUS
 62
     5
 10
-2703.533126451028
 20
126.0125709189238
 30
0.0
 11
-2693.285094954964
 21
126.0125709189238
 31
0.0
  0
LINE
  5
1F9
  8
回02-寸法
  6
CONTINUOUS
 62
     5
 10
-2709.413126451027
 20
126.0125709189238
 30
0.0
 11
-2705.533126451027
 21
126.0125709189238
 31
0.0
  0
INSERT
  5
1FA
  8
回02-寸法
  6
CONTINUOUS
 62
     5
  2
_OPEN
 10
-2709.413126451027
 20
126.0125709189238
 30
0.0
 41
2.0
 42
2.0
 43
2.0
  0
INSERT
  5
1FB
  8
回02-寸法
  6
CONTINUOUS
 62
     5
  2
_OPEN
 10
-2705.533126451027
 20
126.0125709189238
 30
0.0
 41
2.0
 42
2.0
 43
2.0
 50
180.0
  0
TEXT
  5
1FC
  8
回02-寸法
  6
CONTINUOUS
 62
     5
 10
-2701.409110702996
 20
126.6375709189238
 30
0.0
 40
2.5
  1
(3.88)
1001
ACAD
1000
MTEXTBEGIN
1070
    73
1070
     1
1070
    44
1040
1.0
1070
    74
1070
     0
1000
MTEXTEND
  0
POINT
  5
1FD
  8
DEFPOINTS
  6
CONTINUOUS
 62
     0
 10
-2709.413126451027
 20
103.7219617724836
 30
0.0
  0
POINT
  5
1FE
  8
DEFPOINTS
  6
CONTINUOUS
 62
     0
 10
-2705.533126451027
 20
106.5939617724836
 30
0.0
  0
POINT
  5
1FF
  8
DEFPOINTS
  6
CONTINUOUS
 62
     0
 10
-2705.533126451027
 20
126.0125709189238
 30
0.0
  0
ENDBLK
  5
200
  8
0
 62
     1
  0
BLOCK
  8
0
  2
*D19
 70
     1
 10
0.0
 20
0.0
 30
0.0
  3
*D19
  1

  0
LINE
  5
1E8
  8
回02-寸法
  6
CONTINUOUS
 62
     5
 10
-2710.413126451028
 20
103.2219617724841
 30
0.0
 11
-2686.743239260542
 21
103.2219617724841
 31
0.0
  0
LINE
  5
1E9
  8
回02-寸法
  6
CONTINUOUS
 62
     5
 10
-2710.413126451028
 20
48.86196177248368
 30
0.0
 11
-2686.743239260542
 21
48.86196177248368
 31
0.0
  0
LINE
  5
1EA
  8
回02-寸法
  6
CONTINUOUS
 62
     5
 10
-2687.743239260541
 20
101.2219617724841
 30
0.0
 11
-2687.743239260541
 21
50.86196177248369
 31
0.0
  0
INSERT
  5
1EB
  8
回02-寸法
  6
CONTINUOUS
 62
     5
  2
_OPEN
 10
-2687.743239260541
 20
103.2219617724841
 30
0.0
 41
2.0
 42
2.0
 43
2.0
 50
90.0
  0
INSERT
  5
1EC
  8
回02-寸法
  6
CONTINUOUS
 62
     5
  2
_OPEN
 10
-2687.743239260541
 20
48.86196177248368
 30
0.0
 41
2.0
 42
2.0
 43
2.0
 50
270.0
  0
TEXT
  5
1ED
  8
回02-寸法
  6
CONTINUOUS
 62
     5
 10
-2688.368239260541
 20
61.16745389846892
 30
0.0
 40
2.5
  1
54.36 (Active Area)
 50
90.0
1001
ACAD
1000
MTEXTBEGIN
1070
    73
1070
     1
1070
    44
1040
1.0
1070
    74
1070
     0
1000
MTEXTEND
  0
POINT
  5
1EE
  8
DEFPOINTS
  6
CONTINUOUS
 62
     0
 10
-2710.413126451028
 20
103.2219617724841
 30
0.0
  0
POINT
  5
1EF
  8
DEFPOINTS
  6
CONTINUOUS
 62
     0
 10
-2710.413126451028
 20
48.86196177248368
 30
0.0
  0
POINT
  5
1F0
  8
DEFPOINTS
  6
CONTINUOUS
 62
     0
 10
-2687.743239260541
 20
48.86196177248368
 30
0.0
  0
ENDBLK
  5
1F1
  8
0
 62
     1
  0
BLOCK
  8
0
  2
*D20
 70
     1
 10
0.0
 20
0.0
 30
0.0
  3
*D20
  1

  0
LINE
  5
1DB
  8
回02-寸法
  6
CONTINUOUS
 62
     5
 10
-2709.413126451029
 20
47.86196177248366
 30
0.0
 11
-2681.743239260564
 21
47.86196177248366
 31
0.0
  0
LINE
  5
1DC
  8
回02-寸法
  6
CONTINUOUS
 62
     5
 10
-2709.413126451029
 20
103.7219617724837
 30
0.0
 11
-2681.743239260564
 21
103.7219617724837
 31
0.0
  0
LINE
  5
1DD
  8
回02-寸法
  6
CONTINUOUS
 62
     5
 10
-2682.743239260564
 20
49.86196177248368
 30
0.0
 11
-2682.743239260564
 21
101.7219617724837
 31
0.0
  0
INSERT
  5
1DE
  8
回02-寸法
  6
CONTINUOUS
 62
     5
  2
_OPEN
 10
-2682.743239260564
 20
47.86196177248367
 30
0.0
 41
2.0
 42
2.0
 43
2.0
 50
270.0
  0
INSERT
  5
1DF
  8
回02-寸法
  6
CONTINUOUS
 62
     5
  2
_OPEN
 10
-2682.743239260564
 20
103.7219617724837
 30
0.0
 41
2.0
 42
2.0
 43
2.0
 50
90.0
  0
TEXT
  5
1E0
  8
回02-寸法
  6
CONTINUOUS
 62
     5
 10
-2683.913543868948
 20
60.16745389846892
 30
0.0
 40
2.5
  1
55.86 (Viewing Area)
 50
90.0
1001
ACAD
1000
MTEXTBEGIN
1070
    73
1070
     1
1070
    44
1040
1.0
1070
    74
1070
     0
1000
MTEXTEND
  0
POINT
  5
1E1
  8
DEFPOINTS
  6
CONTINUOUS
 62
     0
 10
-2709.413126451029
 20
47.86196177248366
 30
0.0
  0
POINT
  5
1E2
  8
DEFPOINTS
  6
CONTINUOUS
 62
     0
 10
-2709.413126451029
 20
103.7219617724837
 30
0.0
  0
POINT
  5
1E3
  8
DEFPOINTS
  6
CONTINUOUS
 62
     0
 10
-2682.743239260564
 20
103.7219617724837
 30
0.0
  0
ENDBLK
  5
1E4
  8
0
 62
     1
  0
BLOCK
  8
0
  2
*D21
 70
     1
 10
0.0
 20
0.0
 30
0.0
  3
*D21
  1

  0
LINE
  5
1CE
  8
回02-寸法
  6
CONTINUOUS
 62
     5
 10
-2708.913126451028
 20
104.5219617724837
 30
0.0
 11
-2676.743239260569
 21
104.5219617724837
 31
0.0
  0
LINE
  5
1CF
  8
回02-寸法
  6
CONTINUOUS
 62
     5
 10
-2708.913126451028
 20
47.06196177248365
 30
0.0
 11
-2676.743239260569
 21
47.06196177248365
 31
0.0
  0
LINE
  5
1D0
  8
回02-寸法
  6
CONTINUOUS
 62
     5
 10
-2677.743239260568
 20
102.5219617724837
 30
0.0
 11
-2677.743239260568
 21
49.06196177248367
 31
0.0
  0
INSERT
  5
1D1
  8
回02-寸法
  6
CONTINUOUS
 62
     5
  2
_OPEN
 10
-2677.743239260568
 20
104.5219617724837
 30
0.0
 41
2.0
 42
2.0
 43
2.0
 50
90.0
  0
INSERT
  5
1D2
  8
回02-寸法
  6
CONTINUOUS
 62
     5
  2
_OPEN
 10
-2677.743239260568
 20
47.06196177248366
 30
0.0
 41
2.0
 42
2.0
 43
2.0
 50
270.0
  0
TEXT
  5
1D3
  8
回02-寸法
  6
CONTINUOUS
 62
     5
 10
-2678.243239260568
 20
71.79091798694253
 30
0.0
 40
2.5
  1
57.46
 50
90.0
1001
ACAD
1000
MTEXTBEGIN
1070
    73
1070
     1
1070
    44
1040
1.0
1070
    74
1070
     0
1000
MTEXTEND
  0
POINT
  5
1D4
  8
DEFPOINTS
  6
CONTINUOUS
 62
     0
 10
-2708.913126451028
 20
104.5219617724837
 30
0.0
  0
POINT
  5
1D5
  8
DEFPOINTS
  6
CONTINUOUS
 62
     0
 10
-2708.913126451028
 20
47.06196177248365
 30
0.0
  0
POINT
  5
1D6
  8
DEFPOINTS
  6
CONTINUOUS
 62
     0
 10
-2677.743239260568
 20
47.06196177248366
 30
0.0
  0
ENDBLK
  5
1D7
  8
0
 62
     1
  0
BLOCK
  8
0
  2
*D22
 70
     1
 10
0.0
 20
0.0
 30
0.0
  3
*D22
  1

  0
LINE
  5
1C1
  8
回02-寸法
  6
CONTINUOUS
 62
     5
 10
-2705.533126451028
 20
39.48996177248371
 30
0.0
 11
-2671.743239260571
 21
39.48996177248371
 31
0.0
  0
LINE
  5
1C2
  8
回02-寸法
  6
CONTINUOUS
 62
     5
 10
-2705.533126451028
 20
106.5939617724837
 30
0.0
 11
-2671.743239260571
 21
106.5939617724837
 31
0.0
  0
LINE
  5
1C3
  8
回02-寸法
  6
CONTINUOUS
 62
     5
 10
-2672.743239260571
 20
41.48996177248371
 30
0.0
 11
-2672.743239260571
 21
104.5939617724837
 31
0.0
  0
INSERT
  5
1C4
  8
回02-寸法
  6
CONTINUOUS
 62
     5
  2
_OPEN
 10
-2672.743239260571
 20
39.48996177248372
 30
0.0
 41
2.0
 42
2.0
 43
2.0
 50
270.0
  0
INSERT
  5
1C5
  8
回02-寸法
  6
CONTINUOUS
 62
     5
  2
_OPEN
 10
-2672.743239260571
 20
106.5939617724837
 30
0.0
 41
2.0
 42
2.0
 43
2.0
 50
90.0
  0
INSERT
  5
1C6
  8
回02-寸法
  6
CONTINUOUS
 62
     5
 66
     1
  2
*X50
 10
0.0
 20
0.0
 30
0.0
  0
SEQEND
  5
47A
  8
回07-寸法
  6
CONTINUOUS
 62
     1
  0
POINT
  5
1C7
  8
DEFPOINTS
  6
CONTINUOUS
 62
     0
 10
-2705.533126451028
 20
39.48996177248371
 30
0.0
  0
POINT
  5
1C8
  8
DEFPOINTS
  6
CONTINUOUS
 62
     0
 10
-2705.533126451028
 20
106.5939617724837
 30
0.0
  0
POINT
  5
1C9
  8
DEFPOINTS
  6
CONTINUOUS
 62
     0
 10
-2672.743239260571
 20
106.5939617724837
 30
0.0
  0
ENDBLK
  5
1CA
  8
0
 62
     1
  0
BLOCK
  8
0
  2
*D23
 70
     1
 10
0.0
 20
0.0
 30
0.0
  3
*D23
  1

  0
LINE
  5
1B2
  8
回02-寸法
  6
CONTINUOUS
 62
     5
 10
-2705.533126451028
 20
106.5939617724837
 30
0.0
 11
-2686.743239260538
 21
106.5939617724837
 31
0.0
  0
LINE
  5
1B3
  8
回02-寸法
  6
CONTINUOUS
 62
     5
 10
-2710.413126451028
 20
103.2219617724841
 30
0.0
 11
-2686.743239260538
 21
103.2219617724841
 31
0.0
  0
LINE
  5
1B4
  8
回02-寸法
  6
CONTINUOUS
 62
     5
 10
-2687.743239260538
 20
101.2219617724841
 30
0.0
 11
-2687.743239260538
 21
99.22196177248418
 31
0.0
  0
LINE
  5
1B5
  8
回02-寸法
  6
CONTINUOUS
 62
     5
 10
-2687.743239260538
 20
108.5939617724837
 30
0.0
 11
-2687.743239260538
 21
118.8419932685467
 31
0.0
  0
LINE
  5
1B6
  8
回02-寸法
  6
CONTINUOUS
 62
     5
 10
-2687.743239260538
 20
103.2219617724841
 30
0.0
 11
-2687.743239260538
 21
106.5939617724837
 31
0.0
  0
INSERT
  5
1B7
  8
回02-寸法
  6
CONTINUOUS
 62
     5
  2
_OPEN
 10
-2687.743239260538
 20
103.2219617724841
 30
0.0
 41
2.0
 42
2.0
 43
2.0
 50
90.0
  0
INSERT
  5
1B8
  8
回02-寸法
  6
CONTINUOUS
 62
     5
  2
_OPEN
 10
-2687.743239260538
 20
106.5939617724837
 30
0.0
 41
2.0
 42
2.0
 43
2.0
 50
270.0
  0
TEXT
  5
1B9
  8
回02-寸法
  6
CONTINUOUS
 62
     5
 10
-2688.368239260537
 20
110.7179775205159
 30
0.0
 40
2.5
  1
(3.37)
 50
90.0
1001
ACAD
1000
MTEXTBEGIN
1070
    73
1070
     1
1070
    44
1040
1.0
1070
    74
1070
     0
1000
MTEXTEND
  0
POINT
  5
1BA
  8
DEFPOINTS
  6
CONTINUOUS
 62
     0
 10
-2705.533126451028
 20
106.5939617724837
 30
0.0
  0
POINT
  5
1BB
  8
DEFPOINTS
  6
CONTINUOUS
 62
     0
 10
-2710.413126451028
 20
103.2219617724841
 30
0.0
  0
POINT
  5
1BC
  8
DEFPOINTS
  6
CONTINUOUS
 62
     0
 10
-2687.743239260538
 20
103.2219617724841
 30
0.0
  0
ENDBLK
  5
1BD
  8
0
 62
     1
  0
BLOCK
  8
0
  2
*D24
 70
     1
 10
0.0
 20
0.0
 30
0.0
  3
*D24
  1

  0
LINE
  5
1A3
  8
回02-寸法
  6
CONTINUOUS
 62
     5
 10
-2705.533126451028
 20
106.5939617724837
 30
0.0
 11
-2681.743239260538
 21
106.5939617724837
 31
0.0
  0
LINE
  5
1A4
  8
回02-寸法
  6
CONTINUOUS
 62
     5
 10
-2709.413126451029
 20
103.7219617724837
 30
0.0
 11
-2681.743239260538
 21
103.7219617724837
 31
0.0
  0
LINE
  5
1A5
  8
回02-寸法
  6
CONTINUOUS
 62
     5
 10
-2682.743239260537
 20
101.7219617724837
 30
0.0
 11
-2682.743239260537
 21
99.72196177248372
 31
0.0
  0
LINE
  5
1A6
  8
回02-寸法
  6
CONTINUOUS
 62
     5
 10
-2682.743239260537
 20
108.5939617724837
 30
0.0
 11
-2682.743239260537
 21
118.8419932686844
 31
0.0
  0
LINE
  5
1A7
  8
回02-寸法
  6
CONTINUOUS
 62
     5
 10
-2682.743239260537
 20
103.7219617724837
 30
0.0
 11
-2682.743239260537
 21
106.5939617724837
 31
0.0
  0
INSERT
  5
1A8
  8
回02-寸法
  6
CONTINUOUS
 62
     5
  2
_OPEN
 10
-2682.743239260537
 20
103.7219617724837
 30
0.0
 41
2.0
 42
2.0
 43
2.0
 50
90.0
  0
INSERT
  5
1A9
  8
回02-寸法
  6
CONTINUOUS
 62
     5
  2
_OPEN
 10
-2682.743239260537
 20
106.5939617724837
 30
0.0
 41
2.0
 42
2.0
 43
2.0
 50
270.0
  0
TEXT
  5
1AA
  8
回02-寸法
  6
CONTINUOUS
 62
     5
 10
-2683.368239260537
 20
110.7179775206537
 30
0.0
 40
2.5
  1
(2.87)
 50
90.0
1001
ACAD
1000
MTEXTBEGIN
1070
    73
1070
     1
1070
    44
1040
1.0
1070
    74
1070
     0
1000
MTEXTEND
  0
POINT
  5
1AB
  8
DEFPOINTS
  6
CONTINUOUS
 62
     0
 10
-2705.533126451028
 20
106.5939617724837
 30
0.0
  0
POINT
  5
1AC
  8
DEFPOINTS
  6
CONTINUOUS
 62
     0
 10
-2709.413126451029
 20
103.7219617724837
 30
0.0
  0
POINT
  5
1AD
  8
DEFPOINTS
  6
CONTINUOUS
 62
     0
 10
-2682.743239260537
 20
103.7219617724837
 30
0.0
  0
ENDBLK
  5
1AE
  8
0
 62
     1
  0
BLOCK
  8
0
  2
*D25
 70
     1
 10
0.0
 20
0.0
 30
0.0
  3
*D25
  1

  0
LINE
  5
194
  8
回02-寸法
  6
CONTINUOUS
 62
     5
 10
-2705.533126451028
 20
106.5939617724837
 30
0.0
 11
-2676.743239260538
 21
106.5939617724837
 31
0.0
  0
LINE
  5
195
  8
回02-寸法
  6
CONTINUOUS
 62
     5
 10
-2708.913126451028
 20
104.5219617724837
 30
0.0
 11
-2676.743239260538
 21
104.5219617724837
 31
0.0
  0
LINE
  5
196
  8
回02-寸法
  6
CONTINUOUS
 62
     5
 10
-2677.743239260538
 20
102.5219617724837
 30
0.0
 11
-2677.743239260538
 21
100.5219617724837
 31
0.0
  0
LINE
  5
197
  8
回02-寸法
  6
CONTINUOUS
 62
     5
 10
-2677.743239260538
 20
108.5939617724837
 30
0.0
 11
-2677.743239260538
 21
118.8419932685467
 31
0.0
  0
LINE
  5
198
  8
回02-寸法
  6
CONTINUOUS
 62
     5
 10
-2677.743239260538
 20
104.5219617724837
 30
0.0
 11
-2677.743239260538
 21
106.5939617724837
 31
0.0
  0
INSERT
  5
199
  8
回02-寸法
  6
CONTINUOUS
 62
     5
  2
_OPEN
 10
-2677.743239260538
 20
104.5219617724837
 30
0.0
 41
2.0
 42
2.0
 43
2.0
 50
90.0
  0
INSERT
  5
19A
  8
回02-寸法
  6
CONTINUOUS
 62
     5
  2
_OPEN
 10
-2677.743239260538
 20
106.5939617724837
 30
0.0
 41
2.0
 42
2.0
 43
2.0
 50
270.0
  0
TEXT
  5
19B
  8
回02-寸法
  6
CONTINUOUS
 62
     5
 10
-2678.368239260537
 20
110.7179775205159
 30
0.0
 40
2.5
  1
(2.07) 
 50
90.0
1001
ACAD
1000
MTEXTBEGIN
1070
    73
1070
     1
1070
    44
1040
1.0
1070
    74
1070
     0
1000
MTEXTEND
  0
POINT
  5
19C
  8
DEFPOINTS
  6
CONTINUOUS
 62
     0
 10
-2705.533126451028
 20
106.5939617724837
 30
0.0
  0
POINT
  5
19D
  8
DEFPOINTS
  6
CONTINUOUS
 62
     0
 10
-2708.913126451028
 20
104.5219617724837
 30
0.0
  0
POINT
  5
19E
  8
DEFPOINTS
  6
CONTINUOUS
 62
     0
 10
-2677.743239260538
 20
104.5219617724837
 30
0.0
  0
ENDBLK
  5
19F
  8
0
 62
     1
  0
BLOCK
  8
0
  2
*D26
 70
     1
 10
0.0
 20
0.0
 30
0.0
  3
*D26
  1

  0
LINE
  5
185
  8
回02-寸法
  6
CONTINUOUS
 62
     5
 10
-2710.413126451028
 20
48.86196177248368
 30
0.0
 11
-2686.743239260541
 21
48.86196177248368
 31
0.0
  0
LINE
  5
186
  8
回02-寸法
  6
CONTINUOUS
 62
     5
 10
-2705.533126451028
 20
39.48996177248371
 30
0.0
 11
-2686.743239260541
 21
39.48996177248371
 31
0.0
  0
LINE
  5
187
  8
回02-寸法
  6
CONTINUOUS
 62
     5
 10
-2687.743239260541
 20
50.86196177248369
 30
0.0
 11
-2687.743239260541
 21
52.86196177248369
 31
0.0
  0
LINE
  5
188
  8
回02-寸法
  6
CONTINUOUS
 62
     5
 10
-2687.743239260541
 20
37.48996177248372
 30
0.0
 11
-2687.743239260541
 21
29.13640838189038
 31
0.0
  0
LINE
  5
189
  8
回02-寸法
  6
CONTINUOUS
 62
     5
 10
-2687.743239260541
 20
48.86196177248368
 30
0.0
 11
-2687.743239260541
 21
39.48996177248372
 31
0.0
  0
INSERT
  5
18A
  8
回02-寸法
  6
CONTINUOUS
 62
     5
  2
_OPEN
 10
-2687.743239260541
 20
48.86196177248368
 30
0.0
 41
2.0
 42
2.0
 43
2.0
 50
270.0
  0
INSERT
  5
18B
  8
回02-寸法
  6
CONTINUOUS
 62
     5
  2
_OPEN
 10
-2687.743239260541
 20
39.48996177248372
 30
0.0
 41
2.0
 42
2.0
 43
2.0
 50
90.0
  0
TEXT
  5
18C
  8
回02-寸法
  6
CONTINUOUS
 62
     5
 10
-2688.24323926054
 20
29.30415915587037
 30
0.0
 40
2.5
  1
9.37
 50
90.0
1001
ACAD
1000
MTEXTBEGIN
1070
    73
1070
     1
1070
    44
1040
1.0
1070
    74
1070
     0
1000
MTEXTEND
  0
POINT
  5
18D
  8
DEFPOINTS
  6
CONTINUOUS
 62
     0
 10
-2710.413126451028
 20
48.86196177248368
 30
0.0
  0
POINT
  5
18E
  8
DEFPOINTS
  6
CONTINUOUS
 62
     0
 10
-2705.533126451028
 20
39.48996177248371
 30
0.0
  0
POINT
  5
18F
  8
DEFPOINTS
  6
CONTINUOUS
 62
     0
 10
-2687.743239260541
 20
39.48996177248372
 30
0.0
  0
ENDBLK
  5
190
  8
0
 62
     1
  0
BLOCK
  8
0
  2
*D27
 70
     1
 10
0.0
 20
0.0
 30
0.0
  3
*D27
  1

  0
LINE
  5
176
  8
回02-寸法
  6
CONTINUOUS
 62
     5
 10
-2709.413126451029
 20
47.86196177248366
 30
0.0
 11
-2681.743239260563
 21
47.86196177248366
 31
0.0
  0
LINE
  5
177
  8
回02-寸法
  6
CONTINUOUS
 62
     5
 10
-2705.533126451028
 20
39.48996177248371
 30
0.0
 11
-2681.743239260563
 21
39.48996177248371
 31
0.0
  0
LINE
  5
178
  8
回02-寸法
  6
CONTINUOUS
 62
     5
 10
-2682.743239260563
 20
49.86196177248368
 30
0.0
 11
-2682.743239260563
 21
51.86196177248368
 31
0.0
  0
LINE
  5
179
  8
回02-寸法
  6
CONTINUOUS
 62
     5
 10
-2682.743239260563
 20
37.48996177248372
 30
0.0
 11
-2682.743239260563
 21
29.23996177248366
 31
0.0
  0
LINE
  5
17A
  8
回02-寸法
  6
CONTINUOUS
 62
     5
 10
-2682.743239260563
 20
47.86196177248367
 30
0.0
 11
-2682.743239260563
 21
39.48996177248372
 31
0.0
  0
INSERT
  5
17B
  8
回02-寸法
  6
CONTINUOUS
 62
     5
  2
_OPEN
 10
-2682.743239260563
 20
47.86196177248367
 30
0.0
 41
2.0
 42
2.0
 43
2.0
 50
270.0
  0
INSERT
  5
17C
  8
回02-寸法
  6
CONTINUOUS
 62
     5
  2
_OPEN
 10
-2682.743239260563
 20
39.48996177248372
 30
0.0
 41
2.0
 42
2.0
 43
2.0
 50
90.0
  0
TEXT
  5
17D
  8
回02-寸法
  6
CONTINUOUS
 62
     5
 10
-2683.243239260562
 20
29.36496177248455
 30
0.0
 40
2.5
  1
8.37
 50
90.0
1001
ACAD
1000
MTEXTBEGIN
1070
    73
1070
     1
1070
    44
1040
1.0
1070
    74
1070
     0
1000
MTEXTEND
  0
POINT
  5
17E
  8
DEFPOINTS
  6
CONTINUOUS
 62
     0
 10
-2709.413126451029
 20
47.86196177248366
 30
0.0
  0
POINT
  5
17F
  8
DEFPOINTS
  6
CONTINUOUS
 62
     0
 10
-2705.533126451028
 20
39.48996177248371
 30
0.0
  0
POINT
  5
180
  8
DEFPOINTS
  6
CONTINUOUS
 62
     0
 10
-2682.743239260563
 20
39.48996177248372
 30
0.0
  0
ENDBLK
  5
181
  8
0
 62
     1
  0
BLOCK
  8
0
  2
*D28
 70
     1
 10
0.0
 20
0.0
 30
0.0
  3
*D28
  1

  0
LINE
  5
167
  8
回02-寸法
  6
CONTINUOUS
 62
     5
 10
-2708.913126451028
 20
47.06196177248365
 30
0.0
 11
-2676.743239260563
 21
47.06196177248365
 31
0.0
  0
LINE
  5
168
  8
回02-寸法
  6
CONTINUOUS
 62
     5
 10
-2705.533126451028
 20
39.48996177248371
 30
0.0
 11
-2676.743239260563
 21
39.48996177248371
 31
0.0
  0
LINE
  5
169
  8
回02-寸法
  6
CONTINUOUS
 62
     5
 10
-2677.743239260563
 20
49.06196177248367
 30
0.0
 11
-2677.743239260563
 21
51.06196177248367
 31
0.0
  0
LINE
  5
16A
  8
回02-寸法
  6
CONTINUOUS
 62
     5
 10
-2677.743239260563
 20
37.48996177248372
 30
0.0
 11
-2677.743239260563
 21
29.23996177248366
 31
0.0
  0
LINE
  5
16B
  8
回02-寸法
  6
CONTINUOUS
 62
     5
 10
-2677.743239260563
 20
47.06196177248366
 30
0.0
 11
-2677.743239260563
 21
39.48996177248372
 31
0.0
  0
INSERT
  5
16C
  8
回02-寸法
  6
CONTINUOUS
 62
     5
  2
_OPEN
 10
-2677.743239260563
 20
47.06196177248366
 30
0.0
 41
2.0
 42
2.0
 43
2.0
 50
270.0
  0
INSERT
  5
16D
  8
回02-寸法
  6
CONTINUOUS
 62
     5
  2
_OPEN
 10
-2677.743239260563
 20
39.48996177248372
 30
0.0
 41
2.0
 42
2.0
 43
2.0
 50
90.0
  0
TEXT
  5
16E
  8
回02-寸法
  6
CONTINUOUS
 62
     5
 10
-2678.243239260563
 20
29.36496177248455
 30
0.0
 40
2.5
  1
7.57 
 50
90.0
1001
ACAD
1000
MTEXTBEGIN
1070
    73
1070
     1
1070
    44
1040
1.0
1070
    74
1070
     0
1000
MTEXTEND
  0
POINT
  5
16F
  8
DEFPOINTS
  6
CONTINUOUS
 62
     0
 10
-2708.913126451028
 20
47.06196177248365
 30
0.0
  0
POINT
  5
170
  8
DEFPOINTS
  6
CONTINUOUS
 62
     0
 10
-2705.533126451028
 20
39.48996177248371
 30
0.0
  0
POINT
  5
171
  8
DEFPOINTS
  6
CONTINUOUS
 62
     0
 10
-2677.743239260563
 20
39.48996177248372
 30
0.0
  0
ENDBLK
  5
172
  8
0
 62
     1
  0
BLOCK
  8
0
  2
*D29
 70
     1
 10
0.0
 20
0.0
 30
0.0
  3
*D29
  1

  0
LINE
  5
120
  8
回02-寸法
  6
CONTINUOUS
 62
     5
 10
-2858.760004325196
 20
4.522241698078289
 30
0.0
 11
-2858.760004325196
 21
-16.12132406950644
 31
0.0
  0
LINE
  5
121
  8
回02-寸法
  6
CONTINUOUS
 62
     5
 10
-2846.260004325197
 20
4.522241698078289
 30
0.0
 11
-2846.260004325197
 21
-16.12132406950644
 31
0.0
  0
LINE
  5
122
  8
回02-寸法
  6
CONTINUOUS
 62
     5
 10
-2856.760004325196
 20
-15.12132406950644
 30
0.0
 11
-2848.260004325197
 21
-15.12132406950644
 31
0.0
  0
INSERT
  5
123
  8
回02-寸法
  6
CONTINUOUS
 62
     5
 66
     1
  2
_OPEN
 10
-2858.760004325196
 20
-15.12132406950644
 30
0.0
 41
2.0
 42
2.0
 43
2.0
 50
180.0
  0
SEQEND
  5
124
  8
回07-寸法
  6
CONTINUOUS
 62
     1
  0
INSERT
  5
125
  8
回02-寸法
  6
CONTINUOUS
 62
     5
 66
     1
  2
_OPEN
 10
-2846.260004325197
 20
-15.12132406950644
 30
0.0
 41
2.0
 42
2.0
 43
2.0
  0
SEQEND
  5
126
  8
回07-寸法
  6
CONTINUOUS
 62
     1
  0
INSERT
  5
127
  8
回02-寸法
  6
CONTINUOUS
 62
     5
 66
     1
  2
*X51
 10
0.0
 20
0.0
 30
0.0
  0
SEQEND
  5
480
  8
回07-寸法
  6
CONTINUOUS
 62
     1
  0
POINT
  5
128
  8
DEFPOINTS
  6
CONTINUOUS
 62
     0
 10
-2858.760004325196
 20
4.522241698078289
 30
0.0
  0
POINT
  5
129
  8
DEFPOINTS
  6
CONTINUOUS
 62
     0
 10
-2846.260004325197
 20
4.522241698078289
 30
0.0
  0
POINT
  5
12A
  8
DEFPOINTS
  6
CONTINUOUS
 62
     0
 10
-2846.260004325197
 20
-15.12132406950644
 30
0.0
  0
ENDBLK
  5
12B
  8
0
 62
     1
  0
BLOCK
  8
0
  2
*D30
 70
     1
 10
0.0
 20
0.0
 30
0.0
  3
*D30
  1

  0
LINE
  5
106
  8
回02-寸法
  6
CONTINUOUS
 62
     5
 10
-2851.260004325192
 20
0.6227126082681594
 30
0.0
 11
-2851.260004325192
 21
-6.909779256172839
 31
0.0
  0
LINE
  5
107
  8
回02-寸法
  6
CONTINUOUS
 62
     5
 10
-2848.760004325192
 20
0.6227126082681594
 30
0.0
 11
-2848.760004325192
 21
-6.909779256172839
 31
0.0
  0
LINE
  5
108
  8
回02-寸法
  6
CONTINUOUS
 62
     5
 10
-2853.260004325191
 20
-5.909779256172839
 30
0.0
 11
-2855.260004325192
 21
-5.909779256172839
 31
0.0
  0
LINE
  5
109
  8
回02-寸法
  6
CONTINUOUS
 62
     5
 10
-2846.760004325192
 20
-5.909779256172839
 30
0.0
 11
-2835.572400544188
 21
-5.909779256172839
 31
0.0
  0
LINE
  5
10A
  8
回02-寸法
  6
CONTINUOUS
 62
     5
 10
-2851.260004325192
 20
-5.909779256172839
 30
0.0
 11
-2848.760004325192
 21
-5.909779256172839
 31
0.0
  0
INSERT
  5
10B
  8
回02-寸法
  6
CONTINUOUS
 62
     5
 66
     1
  2
_OPEN
 10
-2851.260004325192
 20
-5.909779256172839
 30
0.0
 41
2.0
 42
2.0
 43
2.0
  0
SEQEND
  5
10C
  8
回07-寸法
  6
CONTINUOUS
 62
     1
  0
INSERT
  5
10D
  8
回02-寸法
  6
CONTINUOUS
 62
     5
 66
     1
  2
_OPEN
 10
-2848.760004325192
 20
-5.909779256172839
 30
0.0
 41
2.0
 42
2.0
 43
2.0
 50
180.0
  0
SEQEND
  5
10E
  8
回07-寸法
  6
CONTINUOUS
 62
     1
  0
INSERT
  5
10F
  8
回02-寸法
  6
CONTINUOUS
 62
     5
 66
     1
  2
*X52
 10
0.0
 20
0.0
 30
0.0
  0
SEQEND
  5
486
  8
回07-寸法
  6
CONTINUOUS
 62
     1
  0
POINT
  5
110
  8
DEFPOINTS
  6
CONTINUOUS
 62
     0
 10
-2851.260004325192
 20
0.6227126082681594
 30
0.0
  0
POINT
  5
111
  8
DEFPOINTS
  6
CONTINUOUS
 62
     0
 10
-2848.760004325192
 20
0.6227126082681594
 30
0.0
  0
POINT
  5
112
  8
DEFPOINTS
  6
CONTINUOUS
 62
     0
 10
-2848.760004325192
 20
-5.909779256172839
 30
0.0
  0
ENDBLK
  5
113
  8
0
 62
     1
  0
BLOCK
  8
0
  2
*D31
 70
     1
 10
0.0
 20
0.0
 30
0.0
  3
*D31
  1

  0
LINE
  5
F5
  8
回02-寸法
  6
CONTINUOUS
 62
     5
 10
-2849.460004325191
 20
3.522154676542925
 30
0.0
 11
-2849.460004325191
 21
-2.077739425609195
 31
0.0
  0
LINE
  5
F6
  8
回02-寸法
  6
CONTINUOUS
 62
     5
 10
-2848.060004325191
 20
3.522154676542925
 30
0.0
 11
-2848.060004325191
 21
-2.077739425609195
 31
0.0
  0
LINE
  5
F7
  8
回02-寸法
  6
CONTINUOUS
 62
     5
 10
-2851.460004325192
 20
-1.077739425609195
 30
0.0
 11
-2853.460004325191
 21
-1.077739425609195
 31
0.0
  0
LINE
  5
F8
  8
回02-寸法
  6
CONTINUOUS
 62
     5
 10
-2846.060004325191
 20
-1.077739425609195
 30
0.0
 11
-2831.164188075192
 21
-1.077739425609195
 31
0.0
  0
LINE
  5
F9
  8
回02-寸法
  6
CONTINUOUS
 62
     5
 10
-2849.460004325191
 20
-1.077739425609195
 30
0.0
 11
-2848.060004325191
 21
-1.077739425609195
 31
0.0
  0
INSERT
  5
FA
  8
回02-寸法
  6
CONTINUOUS
 62
     5
 66
     1
  2
_OPEN
 10
-2849.460004325191
 20
-1.077739425609195
 30
0.0
 41
2.0
 42
2.0
 43
2.0
  0
SEQEND
  5
FB
  8
回07-寸法
  6
CONTINUOUS
 62
     1
  0
INSERT
  5
FC
  8
回02-寸法
  6
CONTINUOUS
 62
     5
 66
     1
  2
_OPEN
 10
-2848.060004325191
 20
-1.077739425609195
 30
0.0
 41
2.0
 42
2.0
 43
2.0
 50
180.0
  0
SEQEND
  5
FD
  8
回07-寸法
  6
CONTINUOUS
 62
     1
  0
INSERT
  5
FE
  8
回02-寸法
  6
CONTINUOUS
 62
     5
 66
     1
  2
*X53
 10
0.0
 20
0.0
 30
0.0
  0
SEQEND
  5
48C
  8
回07-寸法
  6
CONTINUOUS
 62
     1
  0
POINT
  5
FF
  8
DEFPOINTS
  6
CONTINUOUS
 62
     0
 10
-2849.460004325191
 20
3.522154676542925
 30
0.0
  0
POINT
  5
100
  8
DEFPOINTS
  6
CONTINUOUS
 62
     0
 10
-2848.060004325191
 20
3.522154676542925
 30
0.0
  0
POINT
  5
101
  8
DEFPOINTS
  6
CONTINUOUS
 62
     0
 10
-2848.060004325191
 20
-1.077739425609195
 30
0.0
  0
ENDBLK
  5
102
  8
0
 62
     1
  0
BLOCK
  8
0
  2
*D32
 70
     1
 10
0.0
 20
0.0
 30
0.0
  3
*D32
  1

  0
LINE
  5
E4
  8
回02-寸法
  6
CONTINUOUS
 62
     5
 10
-2848.760004325192
 20
0.6227126082681594
 30
0.0
 11
-2848.760004325192
 21
-11.11714826927226
 31
0.0
  0
LINE
  5
E5
  8
回02-寸法
  6
CONTINUOUS
 62
     5
 10
-2856.260004325191
 20
0.622625586732795
 30
0.0
 11
-2856.260004325191
 21
-11.11714826927226
 31
0.0
  0
LINE
  5
E6
  8
回02-寸法
  6
CONTINUOUS
 62
     5
 10
-2858.260004325192
 20
-10.11714826927226
 30
0.0
 11
-2860.260004325192
 21
-10.11714826927226
 31
0.0
  0
LINE
  5
E7
  8
回02-寸法
  6
CONTINUOUS
 62
     5
 10
-2846.760004325192
 20
-10.11714826927226
 30
0.0
 11
-2838.968320575191
 21
-10.11714826927226
 31
0.0
  0
LINE
  5
E8
  8
回02-寸法
  6
CONTINUOUS
 62
     5
 10
-2856.260004325191
 20
-10.11714826927226
 30
0.0
 11
-2848.760004325192
 21
-10.11714826927226
 31
0.0
  0
INSERT
  5
E9
  8
回02-寸法
  6
CONTINUOUS
 62
     5
 66
     1
  2
_OPEN
 10
-2856.260004325191
 20
-10.11714826927226
 30
0.0
 41
2.0
 42
2.0
 43
2.0
  0
SEQEND
  5
EA
  8
回07-寸法
  6
CONTINUOUS
 62
     1
  0
INSERT
  5
EB
  8
回02-寸法
  6
CONTINUOUS
 62
     5
 66
     1
  2
_OPEN
 10
-2848.760004325192
 20
-10.11714826927226
 30
0.0
 41
2.0
 42
2.0
 43
2.0
 50
180.0
  0
SEQEND
  5
EC
  8
回07-寸法
  6
CONTINUOUS
 62
     1
  0
INSERT
  5
ED
  8
回02-寸法
  6
CONTINUOUS
 62
     5
 66
     1
  2
*X54
 10
0.0
 20
0.0
 30
0.0
  0
SEQEND
  5
492
  8
回07-寸法
  6
CONTINUOUS
 62
     1
  0
POINT
  5
EE
  8
DEFPOINTS
  6
CONTINUOUS
 62
     0
 10
-2848.760004325192
 20
0.6227126082681594
 30
0.0
  0
POINT
  5
EF
  8
DEFPOINTS
  6
CONTINUOUS
 62
     0
 10
-2856.260004325191
 20
0.622625586732795
 30
0.0
  0
POINT
  5
F0
  8
DEFPOINTS
  6
CONTINUOUS
 62
     0
 10
-2856.260004325191
 20
-10.11714826927226
 30
0.0
  0
ENDBLK
  5
F1
  8
0
 62
     1
  0
BLOCK
  8
0
  2
*D33
 70
     1
 10
0.0
 20
0.0
 30
0.0
  3
*D33
  1

  0
LINE
  5
CF
  8
回02-寸法
  6
CONTINUOUS
 62
     5
 10
-2727.930138182783
 20
-20.01008173828399
 30
0.0
 11
-2727.930138182783
 21
-31.89423099349909
 31
0.0
  0
LINE
  5
D0
  8
回02-寸法
  6
CONTINUOUS
 62
     5
 10
-2722.930138182783
 20
-20.01008173828393
 30
0.0
 11
-2722.930138182783
 21
-31.89423099349909
 31
0.0
  0
LINE
  5
D1
  8
回02-寸法
  6
CONTINUOUS
 62
     5
 10
-2729.930138182783
 20
-30.8942309934991
 30
0.0
 11
-2731.930138182783
 21
-30.8942309934991
 31
0.0
  0
LINE
  5
D2
  8
回02-寸法
  6
CONTINUOUS
 62
     5
 10
-2720.930138182783
 20
-30.8942309934991
 30
0.0
 11
-2707.90770215916
 21
-30.8942309934991
 31
0.0
  0
LINE
  5
D3
  8
回02-寸法
  6
CONTINUOUS
 62
     5
 10
-2727.930138182783
 20
-30.8942309934991
 30
0.0
 11
-2722.930138182783
 21
-30.8942309934991
 31
0.0
  0
INSERT
  5
D4
  8
回02-寸法
  6
CONTINUOUS
 62
     5
  2
_OPEN
 10
-2727.930138182783
 20
-30.8942309934991
 30
0.0
 41
2.0
 42
2.0
 43
2.0
  0
INSERT
  5
D5
  8
回02-寸法
  6
CONTINUOUS
 62
     5
  2
_OPEN
 10
-2722.930138182783
 20
-30.8942309934991
 30
0.0
 41
2.0
 42
2.0
 43
2.0
 50
180.0
  0
INSERT
  5
D6
  8
回02-寸法
  6
CONTINUOUS
 62
     5
 66
     1
  2
*X55
 10
0.0
 20
0.0
 30
0.0
  0
SEQEND
  5
498
  8
回07-寸法
  6
CONTINUOUS
 62
     1
  0
POINT
  5
D7
  8
DEFPOINTS
  6
CONTINUOUS
 62
     0
 10
-2727.930138182783
 20
-20.01008173828399
 30
0.0
  0
POINT
  5
D8
  8
DEFPOINTS
  6
CONTINUOUS
 62
     0
 10
-2722.930138182783
 20
-20.01008173828393
 30
0.0
  0
POINT
  5
D9
  8
DEFPOINTS
  6
CONTINUOUS
 62
     0
 10
-2722.930138182783
 20
-30.8942309934991
 30
0.0
  0
ENDBLK
  5
DA
  8
0
 62
     1
  0
BLOCK
  8
0
  2
*D34
 70
     1
 10
0.0
 20
0.0
 30
0.0
  3
*D34
  1

  0
LINE
  5
C2
  8
回02-寸法
  6
CONTINUOUS
 62
     5
 10
-2727.930138182783
 20
-20.01008173828399
 30
0.0
 11
-2727.930138182783
 21
-31.89423099349682
 31
0.0
  0
LINE
  5
C3
  8
回02-寸法
  6
CONTINUOUS
 62
     5
 10
-2810.933126451028
 20
39.4899617724837
 30
0.0
 11
-2810.933126451028
 21
-31.89423099349682
 31
0.0
  0
LINE
  5
C4
  8
回02-寸法
  6
CONTINUOUS
 62
     5
 10
-2729.930138182783
 20
-30.89423099349682
 30
0.0
 11
-2808.933126451027
 21
-30.89423099349682
 31
0.0
  0
INSERT
  5
C5
  8
回02-寸法
  6
CONTINUOUS
 62
     5
  2
_OPEN
 10
-2727.930138182783
 20
-30.89423099349682
 30
0.0
 41
2.0
 42
2.0
 43
2.0
  0
INSERT
  5
C6
  8
回02-寸法
  6
CONTINUOUS
 62
     5
  2
_OPEN
 10
-2810.933126451028
 20
-30.89423099349682
 30
0.0
 41
2.0
 42
2.0
 43
2.0
 50
180.0
  0
TEXT
  5
C7
  8
回02-寸法
  6
CONTINUOUS
 62
     5
 10
-2772.181632316905
 20
-30.26923099349682
 30
0.0
 40
2.5
  1
(83)
1001
ACAD
1000
MTEXTBEGIN
1070
    73
1070
     1
1070
    44
1040
1.0
1070
    74
1070
     0
1000
MTEXTEND
  0
POINT
  5
C8
  8
DEFPOINTS
  6
CONTINUOUS
 62
     0
 10
-2727.930138182783
 20
-20.01008173828399
 30
0.0
  0
POINT
  5
C9
  8
DEFPOINTS
  6
CONTINUOUS
 62
     0
 10
-2810.933126451028
 20
39.4899617724837
 30
0.0
  0
POINT
  5
CA
  8
DEFPOINTS
  6
CONTINUOUS
 62
     0
 10
-2810.933126451028
 20
-30.89423099349682
 30
0.0
  0
ENDBLK
  5
CB
  8
0
 62
     1
  0
BLOCK
  8
0
  2
*D35
 70
     1
 10
0.0
 20
0.0
 30
0.0
  3
*D35
  1

  0
LINE
  5
B5
  8
回02-寸法
  6
CONTINUOUS
 62
     5
 10
-2734.107312065182
 20
39.48996177248374
 30
0.0
 11
-2763.223671336929
 21
39.48996177248374
 31
0.0
  0
LINE
  5
B6
  8
回02-寸法
  6
CONTINUOUS
 62
     5
 10
-2725.430138182784
 20
-20.51008173828394
 30
0.0
 11
-2763.223671336929
 21
-20.51008173828394
 31
0.0
  0
LINE
  5
B7
  8
回02-寸法
  6
CONTINUOUS
 62
     5
 10
-2762.223671336929
 20
37.48996177248373
 30
0.0
 11
-2762.223671336929
 21
-18.51008173828394
 31
0.0
  0
INSERT
  5
B8
  8
回02-寸法
  6
CONTINUOUS
 62
     5
  2
_OPEN
 10
-2762.223671336929
 20
39.48996177248373
 30
0.0
 41
2.0
 42
2.0
 43
2.0
 50
90.0
  0
INSERT
  5
B9
  8
回02-寸法
  6
CONTINUOUS
 62
     5
  2
_OPEN
 10
-2762.223671336929
 20
-20.51008173828394
 30
0.0
 41
2.0
 42
2.0
 43
2.0
 50
270.0
  0
INSERT
  5
BA
  8
回02-寸法
  6
CONTINUOUS
 62
     5
 66
     1
  2
*X56
 10
0.0
 20
0.0
 30
0.0
  0
SEQEND
  5
49E
  8
回07-寸法
  6
CONTINUOUS
 62
     1
  0
POINT
  5
BB
  8
DEFPOINTS
  6
CONTINUOUS
 62
     0
 10
-2734.107312065182
 20
39.48996177248374
 30
0.0
  0
POINT
  5
BC
  8
DEFPOINTS
  6
CONTINUOUS
 62
     0
 10
-2725.430138182784
 20
-20.51008173828394
 30
0.0
  0
POINT
  5
BD
  8
DEFPOINTS
  6
CONTINUOUS
 62
     0
 10
-2762.223671336929
 20
-20.51008173828394
 30
0.0
  0
ENDBLK
  5
BE
  8
0
 62
     1
  0
BLOCK
  8
0
  2
*D36
 70
     1
 10
0.0
 20
0.0
 30
0.0
  3
*D36
  1

  0
LINE
  5
A5
  8
回02-寸法
  6
CONTINUOUS
 62
     5
 10
-2733.430138582227
 20
35.29964351603587
 30
0.0
 11
-2733.430138582227
 21
22.79378010384499
 31
0.0
  0
LINE
  5
A6
  8
回02-寸法
  6
CONTINUOUS
 62
     5
 10
-2717.430137783335
 20
35.29964351603587
 30
0.0
 11
-2717.430137783335
 21
22.79378010384499
 31
0.0
  0
LINE
  5
A7
  8
回02-寸法
  6
CONTINUOUS
 62
     5
 10
-2731.430138582227
 20
23.79378010384499
 30
0.0
 11
-2719.430137783335
 21
23.79378010384499
 31
0.0
  0
INSERT
  5
A8
  8
回02-寸法
  6
CONTINUOUS
 62
     5
  2
_OPEN
 10
-2733.430138582227
 20
23.79378010384499
 30
0.0
 41
2.0
 42
2.0
 43
2.0
 50
180.0
  0
INSERT
  5
A9
  8
回02-寸法
  6
CONTINUOUS
 62
     5
  2
_OPEN
 10
-2717.430137783335
 20
23.79378010384499
 30
0.0
 41
2.0
 42
2.0
 43
2.0
  0
TEXT
  5
AA
  8
回02-寸法
  6
CONTINUOUS
 62
     5
 10
-2721.905003148711
 20
24.293780103845
 30
0.0
 40
2.5
  1
16
1001
ACAD
1000
MTEXTBEGIN
1070
    73
1070
     1
1070
    44
1040
1.0
1070
    74
1070
     0
1000
MTEXTEND
  0
POINT
  5
AB
  8
DEFPOINTS
  6
CONTINUOUS
 62
     0
 10
-2733.430138582227
 20
35.29964351603587
 30
0.0
  0
POINT
  5
AC
  8
DEFPOINTS
  6
CONTINUOUS
 62
     0
 10
-2717.430137783335
 20
35.29964351603587
 30
0.0
  0
POINT
  5
AD
  8
DEFPOINTS
  6
CONTINUOUS
 62
     0
 10
-2717.430137783335
 20
23.79378010384499
 30
0.0
  0
ENDBLK
  5
AE
  8
0
 62
     1
  0
BLOCK
  8
0
  2
*D37
 70
     1
 10
0.0
 20
0.0
 30
0.0
  3
*D37
  1

  0
LINE
  5
96
  8
回02-寸法
  6
CONTINUOUS
 62
     5
 10
-2734.107312065182
 20
39.48996177248371
 30
0.0
 11
-2746.421809573175
 21
39.48996177248371
 31
0.0
  0
LINE
  5
97
  8
回02-寸法
  6
CONTINUOUS
 62
     5
 10
-2733.430138582229
 20
34.88662571750986
 30
0.0
 11
-2746.421809573175
 21
34.88662571750986
 31
0.0
  0
LINE
  5
98
  8
回02-寸法
  6
CONTINUOUS
 62
     5
 10
-2745.421809573175
 20
41.4899617724837
 30
0.0
 11
-2745.421809573175
 21
43.4899617724837
 31
0.0
  0
LINE
  5
99
  8
回02-寸法
  6
CONTINUOUS
 62
     5
 10
-2745.421809573175
 20
32.88662571750985
 30
0.0
 11
-2745.421809573175
 21
26.01260996947836
 31
0.0
  0
LINE
  5
9A
  8
回02-寸法
  6
CONTINUOUS
 62
     5
 10
-2745.421809573175
 20
39.4899617724837
 30
0.0
 11
-2745.421809573175
 21
34.88662571750985
 31
0.0
  0
INSERT
  5
9B
  8
回02-寸法
  6
CONTINUOUS
 62
     5
  2
_OPEN
 10
-2745.421809573175
 20
39.4899617724837
 30
0.0
 41
2.0
 42
2.0
 43
2.0
 50
270.0
  0
INSERT
  5
9C
  8
回02-寸法
  6
CONTINUOUS
 62
     5
  2
_OPEN
 10
-2745.421809573175
 20
34.88662571750985
 30
0.0
 41
2.0
 42
2.0
 43
2.0
 50
90.0
  0
TEXT
  5
9D
  8
回02-寸法
  6
CONTINUOUS
 62
     5
 10
-2745.921809573175
 20
26.19857405795256
 30
0.0
 40
2.5
  1
4.6
 50
90.0
1001
ACAD
1000
MTEXTBEGIN
1070
    73
1070
     1
1070
    44
1040
1.0
1070
    74
1070
     0
1000
MTEXTEND
  0
POINT
  5
9E
  8
DEFPOINTS
  6
CONTINUOUS
 62
     0
 10
-2734.107312065182
 20
39.48996177248371
 30
0.0
  0
POINT
  5
9F
  8
DEFPOINTS
  6
CONTINUOUS
 62
     0
 10
-2733.430138582229
 20
34.88662571750986
 30
0.0
  0
POINT
  5
A0
  8
DEFPOINTS
  6
CONTINUOUS
 62
     0
 10
-2745.421809573175
 20
34.88662571750985
 30
0.0
  0
ENDBLK
  5
A1
  8
0
 62
     1
  0
BLOCK
  8
0
  2
*D38
 70
     1
 10
0.0
 20
0.0
 30
0.0
  3
*D38
  1

  0
LINE
  5
86
  8
回02-寸法
  6
CONTINUOUS
 62
     5
 10
-2734.107312065182
 20
39.48996177248371
 30
0.0
 11
-2740.525830345348
 21
39.48996177248371
 31
0.0
  0
LINE
  5
87
  8
回02-寸法
  6
CONTINUOUS
 62
     5
 10
-2727.930138182784
 20
29.36411556518443
 30
0.0
 11
-2740.525830345348
 21
29.36411556518443
 31
0.0
  0
LINE
  5
88
  8
回02-寸法
  6
CONTINUOUS
 62
     5
 10
-2739.525830345348
 20
41.4899617724837
 30
0.0
 11
-2739.525830345348
 21
43.4899617724837
 31
0.0
  0
LINE
  5
89
  8
回02-寸法
  6
CONTINUOUS
 62
     5
 10
-2739.525830345348
 20
27.36411556518443
 30
0.0
 11
-2739.525830345348
 21
18.26056217458977
 31
0.0
  0
LINE
  5
8A
  8
回02-寸法
  6
CONTINUOUS
 62
     5
 10
-2739.525830345348
 20
39.4899617724837
 30
0.0
 11
-2739.525830345348
 21
29.36411556518443
 31
0.0
  0
INSERT
  5
8B
  8
回02-寸法
  6
CONTINUOUS
 62
     5
  2
_OPEN
 10
-2739.525830345348
 20
39.4899617724837
 30
0.0
 41
2.0
 42
2.0
 43
2.0
 50
270.0
  0
INSERT
  5
8C
  8
回02-寸法
  6
CONTINUOUS
 62
     5
  2
_OPEN
 10
-2739.525830345348
 20
29.36411556518443
 30
0.0
 41
2.0
 42
2.0
 43
2.0
 50
90.0
  0
TEXT
  5
8D
  8
回02-寸法
  6
CONTINUOUS
 62
     5
 10
-2740.025830345348
 20
18.4373388698873
 30
0.0
 40
2.5
  1
10.13
 50
90.0
1001
ACAD
1000
MTEXTBEGIN
1070
    73
1070
     1
1070
    44
1040
1.0
1070
    74
1070
     0
1000
MTEXTEND
  0
POINT
  5
8E
  8
DEFPOINTS
  6
CONTINUOUS
 62
     0
 10
-2734.107312065182
 20
39.48996177248371
 30
0.0
  0
POINT
  5
90
  8
DEFPOINTS
  6
CONTINUOUS
 62
     0
 10
-2727.930138182784
 20
29.36411556518443
 30
0.0
  0
POINT
  5
91
  8
DEFPOINTS
  6
CONTINUOUS
 62
     0
 10
-2739.525830345348
 20
29.36411556518443
 30
0.0
  0
ENDBLK
  5
92
  8
0
 62
     1
  0
BLOCK
  8
回07-寸法
  2
*X39
 70
     1
 10
0.0
 20
0.0
 30
0.0
  3
*X39
  1

  0
INSERT
  5
3C4
  8
回03-記事
  6
CONTINUOUS
 62
     5
  2
_OPEN
 10
-2637.77904368118
 20
-18.14004683728348
 30
0.0
 41
2.0
 42
2.0
 43
2.0
 50
127.2431930534132
  0
LINE
  5
3C5
  8
回03-記事
  6
CONTINUOUS
 62
     5
 10
-2636.568644849492
 20
-19.73219465336329
 30
0.0
 11
-2630.225717650101
 21
-28.07562445821389
 31
0.0
  0
LINE
  5
3C6
  8
回03-記事
  6
CONTINUOUS
 62
     5
 10
-2630.225717650101
 20
-28.07562445821389
 30
0.0
 11
-2604.018217650101
 21
-28.07562445821389
 31
0.0
  0
ENDBLK
  5
3C8
  8
回07-寸法
  6
CONTINUOUS
 62
     1
  0
BLOCK
  8
回07-寸法
  2
*X40
 70
     1
 10
0.0
 20
0.0
 30
0.0
  3
*X40
  1

  0
INSERT
  5
3CB
  8
回03-記事
  6
CONTINUOUS
 62
     5
  2
_OPEN
 10
-2729.977060239484
 20
37.71051068629328
 30
0.0
 41
2.0
 42
2.0
 43
2.0
 50
78.54472637248497
  0
LINE
  5
3CC
  8
回03-記事
  6
CONTINUOUS
 62
     5
 10
-2730.374266084513
 20
35.75035061204557
 30
0.0
 11
-2734.976342054699
 21
13.039693937913
 31
0.0
  0
LINE
  5
3CD
  8
回03-記事
  6
CONTINUOUS
 62
     5
 10
-2734.976342054699
 20
13.039693937913
 30
0.0
 11
-2759.076342054699
 21
13.039693937913
 31
0.0
  0
ENDBLK
  5
3CF
  8
回07-寸法
  6
CONTINUOUS
 62
     1
  0
BLOCK
  8
回07-寸法
  2
*X41
 70
     1
 10
0.0
 20
0.0
 30
0.0
  3
*X41
  1

  0
INSERT
  5
3D2
  8
回02-寸法
  6
CONTINUOUS
 62
     5
  2
_OPEN
 10
-2717.624366541794
 20
34.70741661162882
 30
0.0
 41
2.0
 42
2.0
 43
2.0
 50
118.0457342480763
  0
LINE
  5
3D3
  8
回02-寸法
  6
CONTINUOUS
 62
     5
 10
-2716.684014154628
 20
32.94227146520253
 30
0.0
 11
-2715.344151599053
 21
30.42720166888802
 31
0.0
  0
LINE
  5
3D4
  8
回02-寸法
  6
CONTINUOUS
 62
     5
 10
-2715.344151599053
 20
30.42720166888802
 30
0.0
 11
-2706.594151599053
 21
30.42720166888802
 31
0.0
  0
ENDBLK
  5
3D6
  8
回07-寸法
  6
CONTINUOUS
 62
     1
  0
BLOCK
  8
回07-寸法
  2
*X42
 70
     1
 10
0.0
 20
0.0
 30
0.0
  3
*X42
  1

  0
INSERT
  5
3D9
  8
回02-寸法
  6
CONTINUOUS
 62
     5
  2
_OPEN
 10
-2716.844035601156
 20
39.40444775626429
 30
0.0
 41
2.0
 42
2.0
 43
2.0
 50
120.9836527455424
  0
LINE
  5
3DA
  8
回02-寸法
  6
CONTINUOUS
 62
     5
 10
-2715.814448615913
 20
37.68981933009775
 30
0.0
 11
-2713.838124064315
 21
34.39853621942385
 31
0.0
  0
LINE
  5
3DB
  8
回02-寸法
  6
CONTINUOUS
 62
     5
 10
-2713.838124064315
 20
34.39853621942385
 30
0.0
 11
-2704.837571255415
 21
34.39853621942385
 31
0.0
  0
ENDBLK
  5
3DD
  8
回07-寸法
  6
CONTINUOUS
 62
     1
  0
BLOCK
  8
回07-寸法
  2
*X43
 70
     1
 10
0.0
 20
0.0
 30
0.0
  3
*X43
  1

  0
INSERT
  5
3E0
  8
回03-記事
  6
CONTINUOUS
 62
     5
  2
_OPEN
 10
-2731.380967700844
 20
-16.39152855452534
 30
0.0
 41
2.0
 42
2.0
 43
2.0
 50
303.3734219252062
  0
LINE
  5
3E1
  8
回03-記事
  6
CONTINUOUS
 62
     5
 10
-2732.481154532628
 20
-14.72132229924742
 30
0.0
 11
-2735.241140833332
 21
-10.53135542203694
 31
0.0
  0
LINE
  5
3E2
  8
回03-記事
  6
CONTINUOUS
 62
     5
 10
-2735.241140833332
 20
-10.53135542203694
 30
0.0
 11
-2737.741140833332
 21
-10.53135542203694
 31
0.0
  0
ENDBLK
  5
3E4
  8
回07-寸法
  6
CONTINUOUS
 62
     1
  0
BLOCK
  8
回07-寸法
  2
*X44
 70
     1
 10
0.0
 20
0.0
 30
0.0
  3
*X44
  1

  0
INSERT
  5
3E7
  8
回02-寸法
  6
CONTINUOUS
 62
     5
  2
_OPEN
 10
-2858.467111106383
 20
3.815134916891736
 30
0.0
 41
2.0
 42
2.0
 43
2.0
 50
57.46117521131115
  0
LINE
  5
3E8
  8
回02-寸法
 62
     5
 10
-2859.542853074766
 20
2.129080582814387
 30
0.0
 11
-2861.159409494284
 21
-0.4046143342941378
 31
0.0
  0
LINE
  5
3E9
  8
回02-寸法
 62
     5
 10
-2861.159409494284
 20
-0.4046143342941378
 30
0.0
 11
-2870.859409494284
 21
-0.4046143342941378
 31
0.0
  0
ENDBLK
  5
3EB
  8
回07-寸法
  6
CONTINUOUS
 62
     1
  0
BLOCK
  8
回07-寸法
  2
*X45
 70
     1
 10
0.0
 20
0.0
 30
0.0
  3
*X45
  1

  0
LINE
  5
41C
  8
回03-記事
  6
CONTINUOUS
 62
     7
 10
-2730.56029366315
 20
35.08987476172663
 30
0.0
 11
-2732.641450490613
 21
37.17103158918899
 31
0.0
  0
LINE
  5
41D
  8
回03-記事
  6
CONTINUOUS
 62
     7
 10
-2728.315229632883
 20
35.08987476172674
 30
0.0
 11
-2732.641450490612
 21
39.41609561945618
 31
0.0
  0
LINE
  5
41E
  8
回03-記事
  6
CONTINUOUS
 62
     7
 10
-2726.641450490612
 20
35.6611596497238
 30
0.0
 11
-2732.641450490613
 21
41.66115964972401
 31
0.0
  0
LINE
  5
41F
  8
回03-記事
  6
CONTINUOUS
 62
     7
 10
-2726.641450490612
 20
37.90622367999131
 30
0.0
 11
-2731.725101572348
 21
42.98987476172635
 31
0.0
  0
LINE
  5
420
  8
回03-記事
  6
CONTINUOUS
 62
     7
 10
-2726.641450490612
 20
40.15128771025866
 30
0.0
 11
-2729.48003754208
 21
42.98987476172629
 31
0.0
  0
LINE
  5
421
  8
回03-記事
  6
CONTINUOUS
 62
     7
 10
-2726.641450490612
 20
42.39635174052601
 30
0.0
 11
-2727.234973511813
 21
42.98987476172654
 31
0.0
  0
ENDBLK
  5
423
  8
回07-寸法
  6
CONTINUOUS
 62
     1
  0
BLOCK
  8
回07-寸法
  2
*X46
 70
     1
 10
0.0
 20
0.0
 30
0.0
  3
*X46
  1

  0
INSERT
  5
44E
  8
回02-寸法
  6
CONTINUOUS
 62
     5
  2
_OPEN
 10
-2742.183126451028
 20
68.04196177248366
 30
0.0
 41
2.0
 42
2.0
 43
2.0
 50
117.456816388279
  0
LINE
  5
44F
  8
回02-寸法
  6
CONTINUOUS
 62
     5
 10
-2741.260966560133
 20
66.26724457370951
 30
0.0
 11
-2740.15022358112
 21
64.12959503187209
 31
0.0
  0
LINE
  5
450
  8
回02-寸法
  6
CONTINUOUS
 62
     5
 10
-2740.15022358112
 20
64.12959503187209
 30
0.0
 11
-2727.90022358112
 21
64.12959503187209
 31
0.0
  0
ENDBLK
  5
452
  8
回07-寸法
  6
CONTINUOUS
 62
     1
  0
BLOCK
  8
回07-寸法
  2
*X47
 70
     1
 10
0.0
 20
0.0
 30
0.0
  3
*X47
  1

  0
TEXT
  5
464
  8
回02-寸法
  6
CONTINUOUS
 62
     5
 10
-2631.104176244968
 20
115.4305480897136
 30
0.0
 40
2.5
  1
1.4
  0
TEXT
  5
465
  8
回02-寸法
  6
CONTINUOUS
 62
     5
 10
-2627.104176244968
 20
115.4305480897136
 30
0.0
 40
1.666749999999999
  1
±0.2
  0
ENDBLK
  5
467
  8
回07-寸法
  6
CONTINUOUS
 62
     1
  0
BLOCK
  8
回07-寸法
  2
*X48
 70
     1
 10
0.0
 20
0.0
 30
0.0
  3
*X48
  1

  0
TEXT
  5
46A
  8
回02-寸法
  6
CONTINUOUS
 62
     5
 10
-2653.680475703934
 20
-28.80807710392861
 30
0.0
 40
2.5
  1
0.3
  0
TEXT
  5
46B
  8
回02-寸法
  6
CONTINUOUS
 62
     5
 10
-2649.430475703935
 20
-28.80807710392861
 30
0.0
 40
1.666749999999999
  1
±0.05
  0
ENDBLK
  5
46D
  8
回07-寸法
  6
CONTINUOUS
 62
     1
  0
BLOCK
  8
回07-寸法
  2
*X49
 70
     1
 10
0.0
 20
0.0
 30
0.0
  3
*X49
  1

  0
TEXT
  5
470
  8
回02-寸法
  6
CONTINUOUS
 62
     5
 10
-2764.701876451028
 20
136.5125709189238
 30
0.0
 40
2.5
  1
105.4
  0
TEXT
  5
471
  8
回02-寸法
  6
CONTINUOUS
 62
     5
 10
-2757.201876451027
 20
136.5125709189238
 30
0.0
 40
2.25
  1
±0.3
  0
ENDBLK
  5
473
  8
回07-寸法
  6
CONTINUOUS
 62
     1
  0
BLOCK
  8
回07-寸法
  2
*X50
 70
     1
 10
0.0
 20
0.0
 30
0.0
  3
*X50
  1

  0
TEXT
  5
476
  8
回02-寸法
  6
CONTINUOUS
 62
     5
 10
-2673.24323926057
 20
67.57321177248423
 30
0.0
 40
2.5
  1
67.1
 50
90.0
  0
TEXT
  5
477
  8
回02-寸法
  6
CONTINUOUS
 62
     5
 10
-2673.24323926057
 20
73.07321177248423
 30
0.0
 40
2.25
  1
±0.3
 50
90.0
  0
ENDBLK
  5
479
  8
回07-寸法
  6
CONTINUOUS
 62
     1
  0
BLOCK
  8
回07-寸法
  2
*X51
 70
     1
 10
0.0
 20
0.0
 30
0.0
  3
*X51
  1

  0
TEXT
  5
47C
  8
回02-寸法
  6
CONTINUOUS
 62
     5
 10
-2856.697782354043
 20
-14.62132406950644
 30
0.0
 40
2.5
  1
5.0
  0
TEXT
  5
47D
  8
回02-寸法
  6
CONTINUOUS
 62
     5
 10
-2852.447782354044
 20
-14.62132406950644
 30
0.0
 40
1.666749999999999
  1
±0.2
  0
ENDBLK
  5
47F
  8
回07-寸法
  6
CONTINUOUS
 62
     1
  0
BLOCK
  8
回07-寸法
  2
*X52
 70
     1
 10
0.0
 20
0.0
 30
0.0
  3
*X52
  1

  0
TEXT
  5
482
  8
回02-寸法
  6
CONTINUOUS
 62
     5
 10
-2844.57267339581
 20
-5.409779256172839
 30
0.0
 40
2.5
  1
1.0
  0
TEXT
  5
483
  8
回02-寸法
  6
CONTINUOUS
 62
     5
 10
-2840.82267339581
 20
-5.409779256172839
 30
0.0
 40
2.083324999999999
  1
±0.2
  0
ENDBLK
  5
485
  8
回07-寸法
  6
CONTINUOUS
 62
     1
  0
BLOCK
  8
回07-寸法
  2
*X53
 70
     1
 10
0.0
 20
0.0
 30
0.0
  3
*X53
  1

  0
TEXT
  5
488
  8
回02-寸法
  6
CONTINUOUS
 62
     5
 10
-2843.935004325191
 20
-0.5777394256091953
 30
0.0
 40
2.5
  1
4-0.6
  0
TEXT
  5
489
  8
回02-寸法
  6
CONTINUOUS
 62
     5
 10
-2835.935004325191
 20
-0.5777394256091953
 30
0.0
 40
2.083324999999999
  1
±0.1
  0
ENDBLK
  5
48B
  8
回07-寸法
  6
CONTINUOUS
 62
     1
  0
BLOCK
  8
回07-寸法
  2
*X54
 70
     1
 10
0.0
 20
0.0
 30
0.0
  3
*X54
  1

  0
TEXT
  5
48E
  8
回02-寸法
  6
CONTINUOUS
 62
     5
 10
-2844.635004325192
 20
-9.617148269272263
 30
0.0
 40
2.5
  1
3
  0
TEXT
  5
48F
  8
回02-寸法
  6
CONTINUOUS
 62
     5
 10
-2842.885004325191
 20
-9.617148269272263
 30
0.0
 40
1.666674999999999
  1
±0.1
  0
ENDBLK
  5
491
  8
回07-寸法
  6
CONTINUOUS
 62
     1
  0
BLOCK
  8
回07-寸法
  2
*X55
 70
     1
 10
0.0
 20
0.0
 30
0.0
  3
*X55
  1

  0
TEXT
  5
494
  8
回02-寸法
  6
CONTINUOUS
 62
     5
 10
-2715.288017360173
 20
-30.39423099349909
 30
0.0
 40
2.5
  1
5
  0
TEXT
  5
495
  8
回02-寸法
  6
CONTINUOUS
 62
     5
 10
-2713.538017360173
 20
-30.39423099349909
 30
0.0
 40
2.25
  1
±0.2
  0
ENDBLK
  5
497
  8
回07-寸法
  6
CONTINUOUS
 62
     1
  0
BLOCK
  8
回07-寸法
  2
*X56
 70
     1
 10
0.0
 20
0.0
 30
0.0
  3
*X56
  1

  0
TEXT
  5
49A
  8
回02-寸法
  6
CONTINUOUS
 62
     5
 10
-2762.723671336928
 20
6.371190017099706
 30
0.0
 40
2.5
  1
60
 50
90.0
  0
TEXT
  5
49B
  8
回02-寸法
  6
CONTINUOUS
 62
     5
 10
-2762.723671336928
 20
9.871190017099706
 30
0.0
 40
2.25
  1
±1
 50
90.0
  0
ENDBLK
  5
49D
  8
回07-寸法
  6
CONTINUOUS
 62
     1
  0
ENDSEC
  0
SECTION
  2
ENTITIES
  0
TEXT
  5
73
  8
回03-記事
  6
CONTINUOUS
 62
     5
 10
-2798.914050274243
 20
-79.89688897982668
 30
0.0
 40
4.0
  1
without affecting product specification.
  0
TEXT
  5
75
  8
回03-記事
  6
CONTINUOUS
 62
     5
 10
-2798.914050274243
 20
-72.88046755132686
 30
0.0
 40
4.0
  1
Edges and corners of ITO glass may be chamfered 
  0
TEXT
  5
76
  8
回03-記事
  6
CONTINUOUS
 62
     5
 10
-2798.914050274243
 20
-65.86404612282703
 30
0.0
 40
4.0
  1
Unit: mm
  0
TEXT
  5
77
  8
回03-記事
  6
CONTINUOUS
 62
     5
 10
-2798.914050274243
 20
-58.8476246943272
 30
0.0
 40
4.0
  1
EXCEPT WHERE INDICATED
  0
TEXT
  5
78
  8
回03-記事
  6
CONTINUOUS
 62
     5
 10
-2798.914050274243
 20
-51.83120326582738
 30
0.0
 40
4.0
  1
TOLERANCE=±0.5mm
  0
TEXT
  5
79
  8
回03-記事
  6
CONTINUOUS
 62
     5
 10
-2628.175717650101
 20
-26.82562445821389
 30
0.0
 40
3.0
  1
Trace Expose
1001
ACAD
1000
MTEXTBEGIN
1070
    73
1070
     1
1070
    44
1040
1.0
1070
    74
1070
     0
1000
MTEXTEND
  0
INSERT
  5
7A
  8
回03-記事
  6
CONTINUOUS
 62
     8
 66
     1
  2
*X39
 10
0.0
 20
0.0
 30
0.0
  0
SEQEND
  5
3C9
  8
回07-寸法
  6
CONTINUOUS
 62
     1
  0
TEXT
  5
7B
  8
回03-記事
  6
CONTINUOUS
 62
     5
 10
-2759.376342054699
 20
13.539693937913
 30
0.0
 40
2.0
  1
PROTECTION TAPE
1001
ACAD
1000
MTEXTBEGIN
1070
    73
1070
     1
1070
    44
1040
1.0
1070
    74
1070
     0
1000
MTEXTEND
  0
INSERT
  5
7C
  8
回03-記事
  6
CONTINUOUS
 62
     5
 66
     1
  2
*X40
 10
0.0
 20
0.0
 30
0.0
  0
SEQEND
  5
3D0
  8
回07-寸法
  6
CONTINUOUS
 62
     1
  0
TEXT
  5
7D
  8
回02-寸法
  6
CONTINUOUS
 62
     5
 10
-2713.219151599053
 20
30.92720166888802
 30
0.0
 40
2.5
  1
4-R1
1001
ACAD
1000
MTEXTBEGIN
1070
    73
1070
     1
1070
    44
1040
1.0
1070
    74
1070
     0
1000
MTEXTEND
  0
INSERT
  5
80
  8
回02-寸法
  6
CONTINUOUS
 62
   114
 66
     1
  2
*X41
 10
0.0
 20
0.0
 30
0.0
  0
SEQEND
  5
3D7
  8
回07-寸法
  6
CONTINUOUS
 62
     1
  0
TEXT
  5
81
  8
回02-寸法
  6
CONTINUOUS
 62
     5
 10
-2711.713124064316
 20
34.89853621942385
 30
0.0
 40
2.5
  1
2-R2
1001
ACAD
1000
MTEXTBEGIN
1070
    73
1070
     1
1070
    44
1040
1.0
1070
    74
1070
     0
1000
MTEXTEND
  0
INSERT
  5
82
  8
回02-寸法
  6
CONTINUOUS
 62
   114
 66
     1
  2
*X42
 10
0.0
 20
0.0
 30
0.0
  0
SEQEND
  5
3DE
  8
回07-寸法
  6
CONTINUOUS
 62
     1
  0
DIMENSION
  5
83
  8
回02-寸法
  6
CONTINUOUS
 62
   114
  2
*D38
 10
-2739.525830345348
 20
29.36411556518443
 30
0.0
 11
-2739.525830345348
 21
21.81233886988719
 31
0.0
 70
   128
  3
DMC
 13
-2734.107312065181
 23
39.4899617724837
 33
0.0
 14
-2727.930138182783
 24
29.36411556518442
 34
0.0
 50
90.0
1001
ACAD
1000
DSTYLE
1002
{
1070
   140
1040
2.5
1070
   371
1070
     9
1070
   372
1070
     9
1002
}
  0
DIMENSION
  5
93
  8
回02-寸法
  6
CONTINUOUS
 62
   114
  2
*D37
 10
-2745.421809573175
 20
34.88662571750985
 30
0.0
 11
-2747.171809573175
 21
28.44961784349488
 31
0.0
 70
     0
  3
DMC
 13
-2734.107312065181
 23
39.4899617724837
 33
0.0
 14
-2733.430138582227
 24
34.88662571750984
 34
0.0
 50
90.0
1001
ACAD
1000
DSTYLE
1002
{
1070
   140
1040
2.5
1070
   371
1070
     9
1070
   372
1070
     9
1002
}
  0
DIMENSION
  5
A2
  8
回02-寸法
  6
CONTINUOUS
 62
   114
  2
*D36
 10
-2717.430137783335
 20
23.79378010384499
 30
0.0
 11
-2720.403959363169
 21
23.79378010384499
 31
0.0
 70
   128
  3
DMC
 13
-2733.430138582227
 23
35.29964351603587
 33
0.0
 14
-2717.430137783335
 24
35.29964351603587
 34
0.0
1001
ACAD
1000
DSTYLE
1002
{
1070
   140
1040
2.5
1070
   371
1070
     9
1070
   372
1070
     9
1002
}
  0
TEXT
  5
AF
  8
回03-記事
  6
CONTINUOUS
 62
     5
 10
2737.291140833332
 20
-10.03135542203694
 30
0.0
 40
3.0
  1
A
210
0.0
220
0.0
230
-1.0
1001
ACAD
1000
MTEXTBEGIN
1070
    73
1070
     1
1070
    44
1040
1.0
1070
    74
1070
     0
1000
MTEXTEND
  0
INSERT
  5
B0
  8
回03-記事
  6
CONTINUOUS
 62
     7
 66
     1
  2
*X43
 10
0.0
 20
0.0
 30
0.0
  0
SEQEND
  5
3E5
  8
回07-寸法
  6
CONTINUOUS
 62
     1
  0
CIRCLE
  5
B1
  8
回03-記事
  6
CONTINUOUS
 62
     5
 10
-2725.430138182783
 20
-20.51008173828393
 30
0.0
 40
7.742816109002717
  0
DIMENSION
  5
B2
  8
回02-寸法
  6
CONTINUOUS
  2
*D35
 10
-2762.223671336929
 20
-20.51008173828394
 30
0.0
 11
-2762.223671336928
 21
9.489940017099797
 31
0.0
 70
   128
  3
DMC
 13
-2734.107312065181
 23
39.48996177248373
 33
0.0
 14
-2725.430138182783
 24
-20.51008173828393
 34
0.0
 50
270.0
1001
ACAD
1000
DSTYLE
1002
{
1070
    47
1040
1.0
1070
    48
1040
1.0
1070
    71
1070
     1
1070
   146
1040
0.9
1070
   271
1070
     0
1070
   371
1070
     9
1070
   372
1070
     9
1002
}
  0
DIMENSION
  5
BF
  8
回02-寸法
  6
CONTINUOUS
  2
*D34
 10
-2810.933126451028
 20
-30.89423099349682
 30
0.0
 11
-2769.431632316905
 21
-29.01923099349682
 31
0.0
 70
     0
  1
(<>)
  3
DMC
 13
-2727.930138182783
 23
-20.01008173828399
 33
0.0
 14
-2810.933126451028
 24
39.4899617724837
 34
0.0
1001
ACAD
1000
DSTYLE
1002
{
1070
    47
1040
1.0
1070
    48
1040
1.0
1070
   146
1040
0.9
1070
   271
1070
     1
1070
   371
1070
     9
1070
   372
1070
     9
1002
}
  0
DIMENSION
  5
CC
  8
回02-寸法
  6
CONTINUOUS
  2
*D33
 10
-2722.930138182783
 20
-30.8942309934991
 30
0.0
 11
-2711.694018596168
 21
-30.8942309934991
 31
0.0
 70
   128
  3
DMC
 13
-2727.930138182783
 23
-20.01008173828399
 33
0.0
 14
-2722.930138182783
 24
-20.01008173828393
 34
0.0
 50
180.0
1001
ACAD
1000
DSTYLE
1002
{
1070
    47
1040
0.2
1070
    48
1040
0.2
1070
    71
1070
     1
1070
   146
1040
0.9
1070
   272
1070
     1
1070
   371
1070
     9
1070
   372
1070
     9
1002
}
  0
TEXT
  5
DB
  8
回02-寸法
 62
     5
 10
-2871.159409494284
 20
0.0953856657058623
 30
0.0
 40
2.0
  1
2-R0.5
1001
ACAD
1000
MTEXTBEGIN
1070
    73
1070
     1
1070
    44
1040
1.0
1070
    74
1070
     0
1000
MTEXTEND
  0
INSERT
  5
DC
  8
回02-寸法
 62
     1
 66
     1
  2
*X44
 10
0.0
 20
0.0
 30
0.0
  0
SEQEND
  5
3EC
  8
回07-寸法
  6
CONTINUOUS
 62
     1
  0
TEXT
  5
DD
  8
回03-記事
  6
CONTINUOUS
 62
     5
 10
-2862.578686384834
 20
25.26300798103341
 30
0.0
 40
4.0
  1
SECTION A
  0
LINE
  5
DE
  8
回03-記事
  6
CONTINUOUS
 62
     7
 10
-2848.760004325192
 20
0.622625586732795
 30
0.0
 11
-2848.760004325192
 21
17.13406752611405
 31
0.0
  0
LINE
  5
DF
  8
回03-記事
  6
CONTINUOUS
 62
     7
 10
-2851.260004325192
 20
0.6227126082681594
 30
0.0
 11
-2851.260004325192
 21
17.13406752611405
 31
0.0
  0
LINE
  5
E0
  8
回03-記事
  6
CONTINUOUS
 62
     7
 10
-2856.260004325191
 20
0.622625586732795
 30
0.0
 11
-2856.260004325191
 21
17.13406752611405
 31
0.0
  0
DIMENSION
  5
E1
  8
回02-寸法
  6
CONTINUOUS
 62
     5
  2
*D32
 10
-2856.260004325191
 20
-10.11714826927226
 30
0.0
 11
-2841.864162450192
 21
-10.11714826927226
 31
0.0
 70
   128
  1
3{\H0.66667x;±0.1}
  3
DMC
 13
-2848.760004325192
 23
0.6227126082681594
 33
0.0
 14
-2856.260004325191
 24
0.622625586732795
 34
0.0
 50
180.0
1001
ACAD
1000
DSTYLE
1002
{
1070
   170
1070
     1
1070
   271
1070
     3
1070
   272
1070
     3
1070
   371
1070
     9
1070
   372
1070
     9
1002
}
  0
DIMENSION
  5
F2
  8
回02-寸法
  6
CONTINUOUS
 62
     5
  2
*D31
 10
-2848.060004325191
 20
-1.077739425609195
 30
0.0
 11
-2837.612096200191
 21
-1.077739425609195
 31
0.0
 70
   128
  1
4-0.6{\H0.83333x;±0.1}
  3
DMC
 13
-2849.460004325191
 23
3.522154676542925
 33
0.0
 14
-2848.060004325191
 24
3.522154676542925
 34
0.0
 50
180.0
1001
ACAD
1000
DSTYLE
1002
{
1070
   170
1070
     1
1070
   271
1070
     3
1070
   272
1070
     3
1070
   371
1070
     9
1070
   372
1070
     9
1002
}
  0
DIMENSION
  5
103
  8
回02-寸法
  6
CONTINUOUS
 62
     5
  2
*D30
 10
-2848.760004325192
 20
-5.909779256172839
 30
0.0
 11
-2840.166202434689
 21
-4.159779256172839
 31
0.0
 70
     0
  1
1.0{\H0.83333x;±0.2}
  3
DMC
 13
-2851.260004325192
 23
0.6227126082681594
 33
0.0
 14
-2848.760004325192
 24
0.6227126082681594
 34
0.0
 50
180.0
1001
ACAD
1000
DSTYLE
1002
{
1070
   170
1070
     1
1070
   271
1070
     3
1070
   272
1070
     3
1070
   371
1070
     9
1070
   372
1070
     9
1002
}
  0
POLYLINE
  5
114
  8
回03-記事
  6
CONTINUOUS
 62
     8
 66
     1
 10
0.0
 20
0.0
 30
0.0
 40
1.399999999999999
 41
1.399999999999999
  0
VERTEX
  5
3ED
  8
回03-記事
  6
CONTINUOUS
 62
     8
 10
-2853.760004325192
 20
3.522154676542925
 30
0.0
  0
VERTEX
  5
3EF
  8
回03-記事
  6
CONTINUOUS
 62
     8
 10
-2853.760004325192
 20
13.52224169807829
 30
0.0
  0
SEQEND
  5
3EE
  8
回07-寸法
  6
CONTINUOUS
 62
     1
  0
POLYLINE
  5
115
  8
回03-記事
  6
CONTINUOUS
 62
     8
 66
     1
 10
0.0
 20
0.0
 30
0.0
 40
1.399999999999999
 41
1.399999999999999
  0
VERTEX
  5
3F0
  8
回03-記事
  6
CONTINUOUS
 62
     8
 10
-2856.260004325191
 20
3.522154676542925
 30
0.0
  0
VERTEX
  5
3F2
  8
回03-記事
  6
CONTINUOUS
 62
     8
 10
-2856.260004325191
 20
13.52224169807829
 30
0.0
  0
SEQEND
  5
3F1
  8
回07-寸法
  6
CONTINUOUS
 62
     1
  0
POLYLINE
  5
116
  8
回03-記事
  6
CONTINUOUS
 62
     8
 66
     1
 10
0.0
 20
0.0
 30
0.0
 40
1.399999999999999
 41
1.399999999999999
  0
VERTEX
  5
3F3
  8
回03-記事
  6
CONTINUOUS
 62
     8
 10
-2848.760004325192
 20
3.522154676542925
 30
0.0
  0
VERTEX
  5
3F5
  8
回03-記事
  6
CONTINUOUS
 62
     8
 10
-2848.760004325192
 20
13.52224169807829
 30
0.0
  0
SEQEND
  5
3F4
  8
回07-寸法
  6
CONTINUOUS
 62
     1
  0
POLYLINE
  5
117
  8
回03-記事
  6
CONTINUOUS
 62
     8
 66
     1
 10
0.0
 20
0.0
 30
0.0
 40
1.399999999999999
 41
1.399999999999999
  0
VERTEX
  5
3F6
  8
回03-記事
  6
CONTINUOUS
 62
     8
 10
-2851.260004325192
 20
3.522154676542925
 30
0.0
  0
VERTEX
  5
3F8
  8
回03-記事
  6
CONTINUOUS
 62
     8
 10
-2851.260004325192
 20
13.52224169807829
 30
0.0
  0
SEQEND
  5
3F7
  8
回07-寸法
  6
CONTINUOUS
 62
     1
  0
LINE
  5
118
  8
回03-記事
  6
CONTINUOUS
 62
     8
 10
-2846.260004325197
 20
4.522241698078289
 30
0.0
 11
-2846.260004325197
 21
21.69352739308539
 31
0.0
  0
LINE
  5
119
  8
回03-記事
  6
CONTINUOUS
 62
     8
 10
-2857.760004325197
 20
3.522241698078289
 30
0.0
 11
-2847.260004325197
 21
3.522241698078289
 31
0.0
  0
ARC
  5
11A
  8
回03-記事
  6
CONTINUOUS
 62
     8
 10
-2847.260004325197
 20
4.522241698078289
 30
0.0
 40
1.0
 50
270.0
 51
0.0
  0
ARC
  5
11B
  8
回03-記事
  6
CONTINUOUS
 62
     8
 10
-2857.760004325197
 20
4.522241698078289
 30
0.0
 40
1.0
 50
180.0
 51
270.0
  0
LINE
  5
11C
  8
回03-記事
  6
CONTINUOUS
 62
     8
 10
-2858.760004325196
 20
4.522241698078289
 30
0.0
 11
-2858.760004325196
 21
21.69352739308539
 31
0.0
  0
DIMENSION
  5
11D
  8
回02-寸法
  6
CONTINUOUS
 62
     5
  2
*D29
 10
-2846.260004325197
 20
-15.12132406950644
 30
0.0
 11
-2852.510004325197
 21
-15.12132406950644
 31
0.0
 70
   128
  1
5.0{\H0.6667x;±0.2}
  3
DMC
 13
-2858.760004325196
 23
4.522241698078289
 33
0.0
 14
-2846.260004325197
 24
4.522241698078289
 34
0.0
 50
180.0
1001
ACAD
1000
DSTYLE
1002
{
1070
   170
1070
     1
1070
   271
1070
     3
1070
   272
1070
     3
1070
   371
1070
     9
1070
   372
1070
     9
1002
}
  0
TEXT
  5
12C
  8
回03-記事
  6
CONTINUOUS
 62
     7
 10
-2562.768897079756
 20
74.92445096308758
 30
0.0
 40
3.0
  1
4
1001
ACAD
1000
MTEXTBEGIN
1070
    73
1070
     1
1070
    44
1040
1.0
1070
    74
1070
     0
1000
MTEXTEND
  0
TEXT
  5
12D
  8
回03-記事
  6
CONTINUOUS
 62
     7
 10
-2570.618897079756
 20
74.92445096308758
 30
0.0
 40
3.0
  1
3
1001
ACAD
1000
MTEXTBEGIN
1070
    73
1070
     1
1070
    44
1040
1.0
1070
    74
1070
     0
1000
MTEXTEND
  0
TEXT
  5
12E
  8
回03-記事
  6
CONTINUOUS
 62
     7
 10
-2578.619228765097
 20
74.92445096308758
 30
0.0
 40
3.0
  1
2
1001
ACAD
1000
MTEXTBEGIN
1070
    73
1070
     1
1070
    44
1040
1.0
1070
    74
1070
     0
1000
MTEXTEND
  0
TEXT
  5
12F
  8
回03-記事
  6
CONTINUOUS
 62
     7
 10
-2586.318897079757
 20
74.92445096308758
 30
0.0
 40
3.0
  1
1
1001
ACAD
1000
MTEXTBEGIN
1070
    73
1070
     1
1070
    44
1040
1.0
1070
    74
1070
     0
1000
MTEXTEND
  0
ARC
  5
130
  8
回03-記事
  6
CONTINUOUS
 62
   250
 10
-2561.568398798855
 20
92.06553546314809
 30
0.0
 40
2.1562110403529
 50
180.0
 51
0.0
  0
ARC
  5
131
  8
回03-記事
  6
CONTINUOUS
 62
   250
 10
-2569.568897079756
 20
92.06553546314809
 30
0.0
 40
2.1562110403529
 50
180.0
 51
0.0
  0
ARC
  5
132
  8
回03-記事
  6
CONTINUOUS
 62
   250
 10
-2577.568897079757
 20
92.06553546314809
 30
0.0
 40
2.1562110403529
 50
180.0
 51
0.0
  0
LINE
  5
133
  8
回03-記事
  6
CONTINUOUS
 62
     7
 10
-2559.412187758502
 20
92.06553546314809
 30
0.0
 11
-2546.456397079757
 21
92.06553546314809
 31
0.0
  0
LINE
  5
134
  8
回03-記事
  6
CONTINUOUS
 62
     7
 10
-2567.412686039404
 20
92.06553546314809
 30
0.0
 11
-2563.724609839207
 21
92.06553546314809
 31
0.0
  0
LINE
  5
135
  8
回03-記事
  6
CONTINUOUS
 62
     7
 10
-2575.412686039403
 20
92.06553546314809
 30
0.0
 11
-2571.72510812011
 21
92.06553546314809
 31
0.0
  0
LINE
  5
136
  8
回03-記事
  6
CONTINUOUS
 62
     7
 10
-2585.568897079757
 20
92.06553546314809
 30
0.0
 11
-2579.72510812011
 21
92.06553546314809
 31
0.0
  0
LINE
  5
137
  8
回03-記事
  6
CONTINUOUS
 62
     7
 10
-2585.568897079756
 20
96.0655354631481
 30
0.0
 11
-2577.568897079757
 21
96.0655354631481
 31
0.0
  0
LINE
  5
138
  8
回03-記事
  6
CONTINUOUS
 62
     7
 10
-2581.568897079757
 20
100.0655354631481
 30
0.0
 11
-2569.568897079756
 21
100.0655354631481
 31
0.0
  0
LINE
  5
139
  8
回03-記事
  6
CONTINUOUS
 62
     7
 10
-2585.568897079757
 20
96.0655354631481
 30
0.0
 11
-2585.568897079757
 21
128.7243879094814
 31
0.0
  0
LINE
  5
13A
  8
回03-記事
  6
CONTINUOUS
 62
     7
 10
-2581.568897079757
 20
100.0655354631481
 30
0.0
 11
-2581.568897079757
 21
116.7806379094815
 31
0.0
  0
LINE
  5
13B
  8
回03-記事
  6
CONTINUOUS
 62
     7
 10
-2577.568897079757
 20
79.87438790948137
 30
0.0
 11
-2577.568897079757
 21
96.0655354631481
 31
0.0
  0
TEXT
  5
13C
  8
回03-記事
  6
CONTINUOUS
 62
     7
 10
-2549.439760718318
 20
119.13367280584
 30
0.0
 40
3.412499999999999
  1
XR
  0
LINE
  5
13D
  8
回03-記事
  6
CONTINUOUS
 62
     7
 10
-2546.456397079757
 20
92.06553546314809
 30
0.0
 11
-2546.456397079757
 21
117.7556379094814
 31
0.0
  0
LINE
  5
13E
  8
回03-記事
  6
CONTINUOUS
 62
     7
 10
-2549.625147079757
 20
117.7556379094814
 30
0.0
 11
-2546.456397079757
 21
117.7556379094814
 31
0.0
  0
LINE
  5
13F
  8
回03-記事
  6
CONTINUOUS
 62
     7
 10
-2556.011397079757
 20
119.0231379094816
 30
0.0
 11
-2554.256397079757
 21
115.5131379094814
 31
0.0
  0
LINE
  5
140
  8
回03-記事
  6
CONTINUOUS
 62
     7
 10
-2557.766397079757
 20
115.5131379094814
 30
0.0
 11
-2556.011397079757
 21
119.0231379094816
 31
0.0
  0
LINE
  5
141
  8
回03-記事
  6
CONTINUOUS
 62
     7
 10
-2554.256397079757
 20
115.5131379094814
 30
0.0
 11
-2552.501397079756
 21
119.0231379094816
 31
0.0
  0
LINE
  5
142
  8
回03-記事
  6
CONTINUOUS
 62
     7
 10
-2552.501397079756
 20
119.0231379094816
 30
0.0
 11
-2550.746397079756
 21
115.5131379094814
 31
0.0
  0
LINE
  5
143
  8
回03-記事
  6
CONTINUOUS
 62
     7
 10
-2550.746397079756
 20
115.5131379094814
 30
0.0
 11
-2549.625147079757
 21
117.7556379094814
 31
0.0
  0
LINE
  5
144
  8
回03-記事
  6
CONTINUOUS
 62
     7
 10
-2564.786397079757
 20
115.5131379094814
 30
0.0
 11
-2563.031397079757
 21
119.0231379094816
 31
0.0
  0
LINE
  5
145
  8
回03-記事
  6
CONTINUOUS
 62
     7
 10
-2568.296397079757
 20
115.5131379094814
 30
0.0
 11
-2566.541397079757
 21
119.0231379094816
 31
0.0
  0
LINE
  5
146
  8
回03-記事
  6
CONTINUOUS
 62
     7
 10
-2566.541397079757
 20
119.0231379094816
 30
0.0
 11
-2564.786397079757
 21
115.5131379094814
 31
0.0
  0
LINE
  5
147
  8
回03-記事
  6
CONTINUOUS
 62
     7
 10
-2563.323897079757
 20
119.1693879094814
 30
0.0
 11
-2559.813897079756
 21
117.4143879094815
 31
0.0
  0
LINE
  5
148
  8
回03-記事
  6
CONTINUOUS
 62
     7
 10
-2563.323897079757
 20
123.1668879094815
 30
0.0
 11
-2559.813897079756
 21
121.4118879094814
 31
0.0
  0
LINE
  5
149
  8
回03-記事
  6
CONTINUOUS
 62
     7
 10
-2563.323897079757
 20
123.1668879094815
 30
0.0
 11
-2559.813897079756
 21
124.9218879094814
 31
0.0
  0
LINE
  5
14A
  8
回03-記事
  6
CONTINUOUS
 62
     7
 10
-2563.323897079757
 20
119.1693879094814
 30
0.0
 11
-2559.813897079756
 21
120.9243879094815
 31
0.0
  0
LINE
  5
14B
  8
回03-記事
  6
CONTINUOUS
 62
     7
 10
-2563.323897079757
 20
112.1493879094812
 30
0.0
 11
-2559.813897079756
 21
113.9043879094817
 31
0.0
  0
LINE
  5
14C
  8
回03-記事
  6
CONTINUOUS
 62
     7
 10
-2563.323897079757
 20
115.6593879094814
 30
0.0
 11
-2559.813897079756
 21
113.9043879094817
 31
0.0
  0
LINE
  5
14D
  8
回03-記事
  6
CONTINUOUS
 62
     7
 10
-2563.323897079757
 20
115.6593879094814
 30
0.0
 11
-2559.813897079756
 21
117.4143879094815
 31
0.0
  0
LINE
  5
14E
  8
回03-記事
  6
CONTINUOUS
 62
     7
 10
-2561.568897079756
 20
125.7993879094815
 30
0.0
 11
-2559.813897079756
 21
124.9218879094814
 31
0.0
  0
LINE
  5
14F
  8
回03-記事
  6
CONTINUOUS
 62
     7
 10
-2563.031397079757
 20
119.0231379094816
 30
0.0
 11
-2561.276397079757
 21
115.5131379094814
 31
0.0
  0
LINE
  5
150
  8
回03-記事
  6
CONTINUOUS
 62
     7
 10
-2561.276397079757
 20
115.5131379094814
 30
0.0
 11
-2559.521397079756
 21
119.0231379094816
 31
0.0
  0
LINE
  5
151
  8
回03-記事
  6
CONTINUOUS
 62
     7
 10
-2561.568897079756
 20
125.7993879094815
 30
0.0
 11
-2561.568897079756
 21
128.7243879094814
 31
0.0
  0
TEXT
  5
152
  8
回03-記事
  6
CONTINUOUS
 62
     7
 10
-2577.926980314167
 20
118.2101124908847
 30
0.0
 40
3.412499999999999
  1
XL
  0
LINE
  5
153
  8
回03-記事
  6
CONTINUOUS
 62
     7
 10
-2571.172647079756
 20
116.7806379094815
 30
0.0
 11
-2570.051397079757
 21
119.0231379094816
 31
0.0
  0
LINE
  5
154
  8
回03-記事
  6
CONTINUOUS
 62
     7
 10
-2570.051397079757
 20
119.0231379094816
 30
0.0
 11
-2568.296397079757
 21
115.5131379094814
 31
0.0
  0
LINE
  5
155
  8
回03-記事
  6
CONTINUOUS
 62
     7
 10
-2563.323897079757
 20
108.6393879094814
 30
0.0
 11
-2559.813897079756
 21
110.3943879094815
 31
0.0
  0
LINE
  5
156
  8
回03-記事
  6
CONTINUOUS
 62
     7
 10
-2563.323897079757
 20
108.6393879094814
 30
0.0
 11
-2561.568897079756
 21
107.7618879094813
 31
0.0
  0
LINE
  5
157
  8
回03-記事
  6
CONTINUOUS
 62
     7
 10
-2561.568897079756
 20
104.3493879094814
 30
0.0
 11
-2561.568897079756
 21
107.7618879094813
 31
0.0
  0
TEXT
  5
158
  8
回03-記事
  6
CONTINUOUS
 62
     7
 10
-2570.533352183094
 20
105.7394365711431
 30
0.0
 40
3.412499999999999
  1
YD
  0
LINE
  5
159
  8
回03-記事
  6
CONTINUOUS
 62
     7
 10
-2563.323897079757
 20
112.1493879094812
 30
0.0
 11
-2559.813897079756
 21
110.3943879094815
 31
0.0
  0
LINE
  5
15A
  8
回03-記事
  6
CONTINUOUS
 62
     7
 10
-2585.568897079757
 20
128.7243879094814
 30
0.0
 11
-2561.568897079756
 21
128.7243879094814
 31
0.0
  0
LINE
  5
15B
  8
回03-記事
  6
CONTINUOUS
 62
     7
 10
-2581.568897079756
 20
116.7806379094815
 30
0.0
 11
-2571.172647079756
 21
116.7806379094815
 31
0.0
  0
LINE
  5
15C
  8
回03-記事
  6
CONTINUOUS
 62
     7
 10
-2585.568897079757
 20
79.87438790948137
 30
0.0
 11
-2585.568897079757
 21
92.06553546314809
 31
0.0
  0
LINE
  5
15D
  8
回03-記事
  6
CONTINUOUS
 62
     7
 10
-2569.568897079756
 20
79.87438790948137
 30
0.0
 11
-2569.568897079756
 21
100.0655354631481
 31
0.0
  0
LINE
  5
15E
  8
回03-記事
  6
CONTINUOUS
 62
     7
 10
-2561.568897079756
 20
79.87438790948137
 30
0.0
 11
-2561.568897079756
 21
104.3493879094812
 31
0.0
  0
TEXT
  5
15F
  8
回03-記事
  6
CONTINUOUS
 62
     7
 10
-2560.611234643426
 20
129.3671716260311
 30
0.0
 40
3.412499999999999
  1
YU
  0
LINE
  5
160
  8
回03-記事
  6
CONTINUOUS
 62
     7
 10
-2559.521397079756
 20
119.0231379094816
 30
0.0
 11
-2557.766397079757
 21
115.5131379094814
 31
0.0
  0
TEXT
  5
161
  8
回02-寸法
  6
CONTINUOUS
 62
     5
 10
-2675.478015248242
 20
16.86513602053088
 30
0.0
 40
2.0
  1
(Insulation Area)
 50
90.0
  0
TEXT
  5
162
  8
回02-寸法
  6
CONTINUOUS
 62
     5
 10
-2693.209399469634
 20
131.7301772437522
 30
0.0
 40
2.0
  1
(Insulation Area)
  0
TEXT
  5
163
  8
回02-寸法
  6
CONTINUOUS
 62
     5
 10
-2674.904594809901
 20
108.5795893908931
 30
0.0
 40
2.0
  1
(Insulation Area)
 50
90.0
  0
DIMENSION
  5
164
  8
回02-寸法
  6
CONTINUOUS
  2
*D28
 10
-2677.743239260563
 20
39.48996177248372
 30
0.0
 11
-2677.743239260563
 21
32.36496177248441
 31
0.0
 70
   128
  1
<> 
  3
DMC
 13
-2708.913126451027
 23
47.06196177248364
 33
0.0
 14
-2705.533126451027
 24
39.4899617724837
 34
0.0
 50
90.0
1001
ACADSTRINGINFO
1000
MIFCodePage
1070
     1
1001
ACAD
1000
DSTYLE
1002
{
1070
   371
1070
     9
1070
   372
1070
     9
1002
}
  0
DIMENSION
  5
173
  8
回02-寸法
  6
CONTINUOUS
  2
*D27
 10
-2682.743239260563
 20
39.48996177248372
 30
0.0
 11
-2682.743239260563
 21
32.36496177248441
 31
0.0
 70
   128
  3
DMC
 13
-2709.413126451027
 23
47.86196177248365
 33
0.0
 14
-2705.533126451027
 24
39.4899617724837
 34
0.0
 50
90.0
1001
ACAD
1000
DSTYLE
1002
{
1070
   371
1070
     9
1070
   372
1070
     9
1002
}
  0
DIMENSION
  5
182
  8
回02-寸法
  6
CONTINUOUS
  2
*D26
 10
-2687.743239260541
 20
39.48996177248372
 30
0.0
 11
-2687.74323926054
 21
32.31318507718777
 31
0.0
 70
   128
  3
DMC
 13
-2710.413126451028
 23
48.86196177248365
 33
0.0
 14
-2705.533126451027
 24
39.4899617724837
 34
0.0
 50
90.0
1001
ACAD
1000
DSTYLE
1002
{
1070
   371
1070
     9
1070
   372
1070
     9
1002
}
  0
DIMENSION
  5
191
  8
回02-寸法
  6
CONTINUOUS
  2
*D25
 10
-2677.743239260538
 20
104.5219617724837
 30
0.0
 11
-2677.743239260537
 21
114.7179775205159
 31
0.0
 70
   128
  1
(<>) 
  3
DMC
 13
-2705.533126451027
 23
106.5939617724836
 33
0.0
 14
-2708.913126451027
 24
104.5219617724836
 34
0.0
 50
90.0
1001
ACADSTRINGINFO
1000
MIFCodePage
1070
     1
1001
ACAD
1000
DSTYLE
1002
{
1070
   371
1070
     9
1070
   372
1070
     9
1002
}
  0
DIMENSION
  5
1A0
  8
回02-寸法
  6
CONTINUOUS
  2
*D24
 10
-2682.743239260537
 20
103.7219617724837
 30
0.0
 11
-2682.743239260537
 21
114.7179775206536
 31
0.0
 70
   128
  1
(<>)
  3
DMC
 13
-2705.533126451027
 23
106.5939617724836
 33
0.0
 14
-2709.413126451027
 24
103.7219617724836
 34
0.0
 50
90.0
1001
ACAD
1000
DSTYLE
1002
{
1070
   371
1070
     9
1070
   372
1070
     9
1002
}
  0
DIMENSION
  5
1AF
  8
回02-寸法
  6
CONTINUOUS
  2
*D23
 10
-2687.743239260538
 20
103.2219617724841
 30
0.0
 11
-2687.743239260538
 21
114.7179775205159
 31
0.0
 70
   128
  1
(<>)
  3
DMC
 13
-2705.533126451027
 23
106.5939617724836
 33
0.0
 14
-2710.413126451028
 24
103.2219617724841
 34
0.0
 50
90.0
1001
ACAD
1000
DSTYLE
1002
{
1070
   371
1070
     9
1070
   372
1070
     9
1002
}
  0
DIMENSION
  5
1BE
  8
回02-寸法
  6
CONTINUOUS
  2
*D22
 10
-2672.743239260571
 20
106.5939617724837
 30
0.0
 11
-2674.49323926057
 21
73.04196177248446
 31
0.0
 70
     0
  3
DMC
 13
-2705.533126451027
 23
39.4899617724837
 33
0.0
 14
-2705.533126451027
 24
106.5939617724836
 34
0.0
 50
90.0
1001
ACAD
1000
DSTYLE
1002
{
1070
    47
1040
0.3
1070
    48
1040
0.3
1070
    71
1070
     1
1070
   146
1040
0.9
1070
   371
1070
     9
1070
   372
1070
     9
1002
}
  0
DIMENSION
  5
1CB
  8
回02-寸法
  6
CONTINUOUS
  2
*D21
 10
-2677.743239260568
 20
47.06196177248366
 30
0.0
 11
-2679.493239260568
 21
75.79196177248445
 31
0.0
 70
     0
  3
DMC
 13
-2708.913126451027
 23
104.5219617724836
 33
0.0
 14
-2708.913126451027
 24
47.06196177248364
 34
0.0
 50
90.0
1001
ACAD
1000
DSTYLE
1002
{
1070
   371
1070
     9
1070
   372
1070
     9
1002
}
  0
DIMENSION
  5
1D8
  8
回02-寸法
  6
CONTINUOUS
  2
*D20
 10
-2682.743239260564
 20
103.7219617724837
 30
0.0
 11
-2684.913543868947
 21
75.79196177248445
 31
0.0
 70
     0
  1
<> (Viewing Area)
  3
DMC
 13
-2709.413126451027
 23
47.86196177248365
 33
0.0
 14
-2709.413126451027
 24
103.7219617724836
 34
0.0
 50
90.0
1001
ACAD
1000
DSTYLE
1002
{
1070
   371
1070
     9
1070
   372
1070
     9
1002
}
  0
DIMENSION
  5
1E5
  8
回02-寸法
  6
CONTINUOUS
  2
*D19
 10
-2687.743239260541
 20
48.86196177248368
 30
0.0
 11
-2689.618239260541
 21
76.04196177248468
 31
0.0
 70
     0
  1
<> (Active Area)
  3
DMC
 13
-2710.413126451028
 23
103.2219617724841
 33
0.0
 14
-2710.413126451028
 24
48.86196177248365
 34
0.0
 50
90.0
1001
ACAD
1000
DSTYLE
1002
{
1070
   371
1070
     9
1070
   372
1070
     9
1002
}
  0
DIMENSION
  5
1F2
  8
回02-寸法
  6
CONTINUOUS
  2
*D18
 10
-2705.533126451027
 20
126.0125709189238
 30
0.0
 11
-2697.409110702996
 21
126.0125709189238
 31
0.0
 70
   128
  1
(<>)
  3
DMC
 13
-2709.413126451027
 23
103.7219617724836
 33
0.0
 14
-2705.533126451027
 24
106.5939617724836
 34
0.0
 50
180.0
1001
ACAD
1000
DSTYLE
1002
{
1070
   371
1070
     9
1070
   372
1070
     9
1002
}
  0
DIMENSION
  5
201
  8
回02-寸法
  6
CONTINUOUS
  2
*D17
 10
-2705.533126451027
 20
121.0125709189238
 30
0.0
 11
-2697.284110702996
 21
121.0125709189238
 31
0.0
 70
   128
  1
(<>)
  3
DMC
 13
-2710.413126451028
 23
103.2219617724836
 33
0.0
 14
-2705.533126451027
 24
106.5939617724836
 34
0.0
 50
180.0
1001
ACAD
1000
DSTYLE
1002
{
1070
   371
1070
     9
1070
   372
1070
     9
1002
}
  0
DIMENSION
  5
210
  8
回02-寸法
  6
CONTINUOUS
  2
*D16
 10
-2708.913126451027
 20
131.0125709189238
 30
0.0
 11
-2697.409110702996
 21
131.0125709189238
 31
0.0
 70
   128
  1
(<>)
  3
DMC
 13
-2705.533126451027
 23
106.5939617724836
 33
0.0
 14
-2708.913126451027
 24
104.5219617724836
 34
0.0
 50
180.0
1001
ACADSTRINGINFO
1000
MIFCodePage
1070
     1
1001
ACAD
1000
DSTYLE
1002
{
1070
   371
1070
     9
1070
   372
1070
     9
1002
}
  0
DIMENSION
  5
21F
  8
回02-寸法
  6
CONTINUOUS
  2
*D15
 10
-2810.933126451028
 20
131.0125709189238
 30
0.0
 11
-2831.748751451028
 21
131.0125709189238
 31
0.0
 70
   128
  1
(Insulation Area) <> 
  3
DMC
 13
-2807.453126451028
 23
104.5219617724836
 33
0.0
 14
-2810.933126451028
 24
106.5939617724836
 34
0.0
 50
180.0
1001
ACADSTRINGINFO
1000
MIFCodePage
1070
     1
1001
ACAD
1000
DSTYLE
1002
{
1070
   371
1070
     9
1070
   372
1070
     9
1002
}
  0
DIMENSION
  5
22E
  8
回02-寸法
  6
CONTINUOUS
  2
*D14
 10
-2708.913126451027
 20
131.0125709189238
 30
0.0
 11
-2758.183126451028
 21
132.7625709189238
 31
0.0
 70
     0
  3
DMC
 13
-2807.453126451028
 23
104.5219617724836
 33
0.0
 14
-2708.913126451027
 24
104.5219617724836
 34
0.0
 50
180.0
1001
ACAD
1000
DSTYLE
1002
{
1070
   371
1070
     9
1070
   372
1070
     9
1002
}
  0
DIMENSION
  5
23B
  8
回02-寸法
  6
CONTINUOUS
  2
*D13
 10
-2810.933126451028
 20
126.0125709189238
 30
0.0
 11
-2818.062494364145
 21
126.0125709189238
 31
0.0
 70
   128
  3
DMC
 13
-2806.953126451027
 23
103.7219617724836
 33
0.0
 14
-2810.933126451028
 24
106.5939617724836
 34
0.0
 50
180.0
1001
ACAD
1000
DSTYLE
1002
{
1070
   371
1070
     9
1070
   372
1070
     9
1002
}
  0
DIMENSION
  5
24A
  8
回02-寸法
  6
CONTINUOUS
  2
*D12
 10
-2810.933126451028
 20
121.0125709189238
 30
0.0
 11
-2818.187494364145
 21
121.0125709189238
 31
0.0
 70
   128
  3
DMC
 13
-2805.953126451028
 23
103.2219617724836
 33
0.0
 14
-2810.933126451028
 24
106.5939617724836
 34
0.0
 50
180.0
1001
ACAD
1000
DSTYLE
1002
{
1070
   371
1070
     9
1070
   372
1070
     9
1002
}
  0
DIMENSION
  5
259
  8
回02-寸法
  6
CONTINUOUS
  2
*D11
 10
-2705.533126451027
 20
136.0125709189238
 30
0.0
 11
-2758.233126451028
 21
137.7625709189238
 31
0.0
 70
     0
  3
DMC
 13
-2810.933126451028
 23
106.5939617724836
 33
0.0
 14
-2705.533126451027
 24
106.5939617724836
 34
0.0
 50
180.0
1001
ACAD
1000
DSTYLE
1002
{
1070
    47
1040
0.3
1070
    48
1040
0.3
1070
    71
1070
     1
1070
   146
1040
0.9
1070
   371
1070
     9
1070
   372
1070
     9
1002
}
  0
DIMENSION
  5
266
  8
回02-寸法
  6
CONTINUOUS
  2
*D10
 10
-2709.413126451027
 20
126.0125709189238
 30
0.0
 11
-2758.183126451028
 21
128.1828755273084
 31
0.0
 70
     0
  1
<> (Viewing Area)
  3
DMC
 13
-2806.953126451027
 23
103.7219617724836
 33
0.0
 14
-2709.413126451027
 24
103.7219617724836
 34
0.0
 50
180.0
1001
ACAD
1000
DSTYLE
1002
{
1070
   371
1070
     9
1070
   372
1070
     9
1002
}
  0
DIMENSION
  5
273
  8
回02-寸法
  6
CONTINUOUS
  2
*D9
 10
-2710.413126451028
 20
121.0125709189238
 30
0.0
 11
-2758.183126451028
 21
122.8875709189238
 31
0.0
 70
     0
  1
<> (Active Area)
  3
DMC
 13
-2805.953126451028
 23
103.2219617724836
 33
0.0
 14
-2710.413126451028
 24
103.2219617724841
 34
0.0
 50
180.0
1001
ACAD
1000
DSTYLE
1002
{
1070
   371
1070
     9
1070
   372
1070
     9
1002
}
  0
POLYLINE
  5
280
  8
回05-ﾃｰﾙ
  6
BYBLOCK
 62
     7
 66
     1
 10
0.0
 20
0.0
 30
0.0
  0
VERTEX
  5
3F9
  8
回05-ﾃｰﾙ
  6
BYBLOCK
 62
     7
 10
-2735.430138382506
 20
39.98991826171607
 30
0.0
 42
-0.4140826732845292
  0
VERTEX
  5
3FB
  8
回05-ﾃｰﾙ
  6
BYBLOCK
 62
     7
 10
-2733.430138582227
 20
37.99081206964741
 30
0.0
  0
VERTEX
  5
3FC
  8
回05-ﾃｰﾙ
  6
BYBLOCK
 62
     7
 10
-2733.430138582227
 20
35.29964351603587
 30
0.0
 42
0.1983816813360239
  0
VERTEX
  5
3FD
  8
回05-ﾃｰﾙ
  6
BYBLOCK
 62
     7
 10
-2733.138687912584
 20
34.59398223294386
 30
0.0
  0
VERTEX
  5
3FE
  8
回05-ﾃｰﾙ
  6
BYBLOCK
 62
     7
 10
-2728.221588852428
 20
29.65675904975217
 30
0.0
 42
-0.1983816813359647
  0
VERTEX
  5
3FF
  8
回05-ﾃｰﾙ
  6
BYBLOCK
 62
     7
 10
-2727.930138182783
 20
28.95109776666061
 30
0.0
  0
VERTEX
  5
400
  8
回05-ﾃｰﾙ
  6
BYBLOCK
 62
     7
 10
-2727.930138182783
 20
-20.01008173828393
 30
0.0
 42
0.4142135623730951
  0
VERTEX
  5
401
  8
回05-ﾃｰﾙ
  6
BYBLOCK
 62
     7
 10
-2727.430138182783
 20
-20.51008173828393
 30
0.0
  0
VERTEX
  5
402
  8
回05-ﾃｰﾙ
  6
BYBLOCK
 62
     7
 10
-2723.430138182783
 20
-20.51008173828393
 30
0.0
 42
0.4142135623730951
  0
VERTEX
  5
403
  8
回05-ﾃｰﾙ
  6
BYBLOCK
 62
     7
 10
-2722.930138182783
 20
-20.01008173828393
 30
0.0
  0
VERTEX
  5
404
  8
回05-ﾃｰﾙ
  6
BYBLOCK
 62
     7
 10
-2722.930138182783
 20
28.95109776666016
 30
0.0
 42
-0.1983816813359648
  0
VERTEX
  5
405
  8
回05-ﾃｰﾙ
  6
BYBLOCK
 62
     7
 10
-2722.638687513138
 20
29.65675904975171
 30
0.0
  0
VERTEX
  5
406
  8
回05-ﾃｰﾙ
  6
BYBLOCK
 62
     7
 10
-2717.721588452982
 20
34.59398223294432
 30
0.0
 42
0.1983816813360239
  0
VERTEX
  5
407
  8
回05-ﾃｰﾙ
  6
BYBLOCK
 62
     7
 10
-2717.430137783335
 20
35.29964351603587
 30
0.0
  0
VERTEX
  5
408
  8
回05-ﾃｰﾙ
  6
BYBLOCK
 62
     7
 10
-2717.430137783337
 20
37.99081206964741
 30
0.0
 42
-0.4140826732845292
  0
VERTEX
  5
409
  8
回05-ﾃｰﾙ
  6
BYBLOCK
 62
     7
 10
-2715.430138182783
 20
39.98991826171607
 30
0.0
  0
VERTEX
  5
40A
  8
回05-ﾃｰﾙ
  6
BYBLOCK
 62
     7
 10
-2715.430138182783
 20
42.98991826171607
 30
0.0
  0
VERTEX
  5
40B
  8
回05-ﾃｰﾙ
  6
BYBLOCK
 62
     7
 10
-2724.930138182783
 20
42.98991826171607
 30
0.0
  0
VERTEX
  5
40C
  8
回05-ﾃｰﾙ
  6
BYBLOCK
 62
     7
 10
-2724.930138182781
 20
37.48991826171607
 30
0.0
 42
-0.9999999999999998
  0
VERTEX
  5
40D
  8
回05-ﾃｰﾙ
  6
BYBLOCK
 62
     7
 10
-2725.930138182783
 20
37.48991826171607
 30
0.0
  0
VERTEX
  5
40E
  8
回05-ﾃｰﾙ
  6
BYBLOCK
 62
     7
 10
-2725.930138182783
 20
42.98991826171607
 30
0.0
  0
VERTEX
  5
40F
  8
回05-ﾃｰﾙ
  6
BYBLOCK
 62
     7
 10
-2735.430138182783
 20
42.98991826171607
 30
0.0
  0
VERTEX
  5
410
  8
回05-ﾃｰﾙ
  6
BYBLOCK
 62
     7
 10
-2735.430138182783
 20
39.98991826171607
 30
0.0
  0
SEQEND
  5
3FA
  8
回07-寸法
  6
CONTINUOUS
 62
     1
  0
LINE
  5
284
  8
回03-記事
  6
CONTINUOUS
 62
     7
 10
-2633.826592581007
 20
35.78893276987981
 30
0.0
 11
-2637.026884637054
 21
37.65932731619179
 31
0.0
  0
TEXT
  5
285
  8
回03-記事
  6
CONTINUOUS
 62
     7
 10
-2633.526899734752
 20
33.69319542654916
 30
0.0
 40
3.0
  1
6
  0
POLYLINE
  5
286
  8
回03-記事
  6
CONTINUOUS
 62
     7
 66
     1
 10
0.0
 20
0.0
 30
0.0
 70
     1
  0
VERTEX
  5
411
  8
回03-記事
  6
CONTINUOUS
 62
     7
 10
-2637.27904368118
 20
34.8899182724939
 30
0.0
  0
VERTEX
  5
413
  8
回03-記事
  6
CONTINUOUS
 62
     7
 10
-2637.279043681182
 20
39.48996177248347
 30
0.0
  0
VERTEX
  5
414
  8
回03-記事
  6
CONTINUOUS
 62
     7
 10
-2635.279043681177
 20
39.48996177248347
 30
0.0
  0
VERTEX
  5
415
  8
回03-記事
  6
CONTINUOUS
 62
     7
 10
-2635.27904368118
 20
42.78991827249393
 30
0.0
  0
VERTEX
  5
416
  8
回03-記事
  6
CONTINUOUS
 62
     7
 10
-2634.77904368118
 20
42.78991827249393
 30
0.0
  0
VERTEX
  5
417
  8
回03-記事
  6
CONTINUOUS
 62
     7
 10
-2634.779043681177
 20
38.98996177248264
 30
0.0
  0
VERTEX
  5
418
  8
回03-記事
  6
CONTINUOUS
 62
     7
 10
-2635.279043681177
 20
38.98996177248264
 30
0.0
  0
VERTEX
  5
419
  8
回03-記事
  6
CONTINUOUS
 62
     7
 10
-2636.779043681181
 20
38.98996177248264
 30
0.0
  0
VERTEX
  5
41A
  8
回03-記事
  6
CONTINUOUS
 62
     7
 10
-2636.779043681181
 20
34.88991827249413
 30
0.0
  0
SEQEND
  5
412
  8
回07-寸法
  6
CONTINUOUS
 62
     1
  0
INSERT
  5
287
  8
回03-記事
  6
CONTINUOUS
 62
     7
 66
     1
  2
*X45
 10
0.0
 20
0.0
 30
0.0
1001
ACAD
1000
HATCH
1002
{
1070
    19
1000
ANSI31
1040
0.5
1040
1.570796326794896
1000
ASC_BOUNDS
1070
     1
1070
     2
1070
     1
1005
288
1000
ASC_SEEDPOINT
1011
-2516.891782409442
1021
288.3946818036155
1031
0.0
1000
R14_HATCH_DATA
1000
287
1011
1.0
1021
0.0
1031
0.0
1011
0.0
1021
1.0
1031
0.0
1011
0.0
1021
0.0
1031
1.0
1040
0.0
1010
0.0
1020
0.0
1030
1.0
1000
ANSI31
1070
     0
1070
     1
1071
        1
1071
        1
1071
        4
1070
     1
1040
-2732.641450490612
1040
42.98987476172629
1040
-2732.641450490612
1040
35.08987476172649
1070
     1
1040
-2732.641450490612
1040
35.08987476172649
1040
-2726.641450490612
1040
35.08987476172649
1070
     1
1040
-2726.641450490612
1040
35.08987476172649
1040
-2726.641450490612
1040
42.98987476172629
1070
     1
1040
-2726.641450490612
1040
42.98987476172629
1040
-2732.641450490612
1040
42.98987476172629
1071
        1
1005
288
1070
     0
1070
     1
1040
1.570796326794896
1040
0.5
1070
     0
1070
     1
1040
2.356194490192344
1040
-2516.891782409442
1040
288.3946818036155
1040
-1.122532015133644
1040
-1.122532015133643
1070
     0
1071
        1
1040
-2516.891782409442
1040
288.3946818036155
1040
0.0
1002
}
  0
SEQEND
  5
424
  8
回07-寸法
  6
CONTINUOUS
 62
     1
  0
POLYLINE
  5
288
  8
回03-記事
  6
CONTINUOUS
 62
     7
 66
     1
 10
0.0
 20
0.0
 30
0.0
 70
     1
1001
ACAD
1000
ASC_BOUNDS
1002
{
1070
    19
1005
287
1002
}
  0
VERTEX
  5
425
  8
回03-記事
  6
CONTINUOUS
 62
     7
 10
-2732.641450490612
 20
42.98987476172629
 30
0.0
  0
VERTEX
  5
427
  8
回03-記事
  6
CONTINUOUS
 62
     7
 10
-2732.641450490612
 20
35.08987476172649
 30
0.0
  0
VERTEX
  5
428
  8
回03-記事
  6
CONTINUOUS
 62
     7
 10
-2726.641450490612
 20
35.08987476172649
 30
0.0
  0
VERTEX
  5
429
  8
回03-記事
  6
CONTINUOUS
 62
     7
 10
-2726.641450490612
 20
42.98987476172629
 30
0.0
  0
SEQEND
  5
426
  8
回07-寸法
  6
CONTINUOUS
 62
     1
  0
LINE
  5
289
  8
回03-記事
  6
CONTINUOUS
 62
     7
 10
-2633.826592581007
 20
29.87863196100454
 30
0.0
 11
-2639.01767861751
 21
32.91253600540637
 31
0.0
  0
POLYLINE
  5
28A
  8
回03-記事
  6
CONTINUOUS
 62
     7
 66
     1
 10
0.0
 20
0.0
 30
0.0
 70
     1
  0
VERTEX
  5
42A
  8
回03-記事
  6
CONTINUOUS
 62
     7
 10
-2639.27904368118
 20
30.40766420998222
 30
0.0
  0
VERTEX
  5
42C
  8
回03-記事
  6
CONTINUOUS
 62
     7
 10
-2639.27904368118
 20
39.78996177248371
 30
0.0
  0
VERTEX
  5
42D
  8
回03-記事
  6
CONTINUOUS
 62
     7
 10
-2638.77904368118
 20
39.78996177248371
 30
0.0
  0
VERTEX
  5
42E
  8
回03-記事
  6
CONTINUOUS
 62
     7
 10
-2638.77904368118
 20
30.40766420998222
 30
0.0
  0
SEQEND
  5
42B
  8
回07-寸法
  6
CONTINUOUS
 62
     1
  0
POLYLINE
  5
28B
  8
回03-記事
  6
CENTER2
 62
     7
 66
     1
 10
0.0
 20
0.0
 30
0.0
 70
     1
  0
VERTEX
  5
42F
  8
回03-記事
  6
CENTER2
 62
     7
 10
-2807.453126451028
 20
47.06196177248364
 30
0.0
  0
VERTEX
  5
431
  8
回03-記事
  6
CENTER2
 62
     7
 10
-2807.453126451028
 20
104.5219617724836
 30
0.0
  0
VERTEX
  5
432
  8
回03-記事
  6
CENTER2
 62
     7
 10
-2708.913126451027
 20
104.5219617724836
 30
0.0
  0
VERTEX
  5
433
  8
回03-記事
  6
CENTER2
 62
     7
 10
-2708.913126451027
 20
47.06196177248364
 30
0.0
  0
SEQEND
  5
430
  8
回07-寸法
  6
CONTINUOUS
 62
     1
  0
LINE
  5
28D
  8
回03-記事
  6
CONTINUOUS
 62
     7
 10
-2639.472591456184
 20
-11.84343352462446
 30
0.0
 11
-2643.055948133224
 21
-7.819329365233159
 31
0.0
  0
LINE
  5
28E
  8
回03-記事
  6
CONTINUOUS
 62
     7
 10
-2643.782302631132
 20
22.39506388960814
 30
0.0
 11
-2638.14764252124
 21
24.50336484196862
 31
0.0
  0
LINE
  5
28F
  8
回03-記事
  6
CONTINUOUS
 62
     7
 10
-2633.826592581007
 20
29.87863196100454
 30
0.0
 11
-2637.322749195378
 21
28.32402005129973
 31
0.0
  0
LINE
  5
290
  8
回03-記事
  6
CONTINUOUS
 62
     7
 10
-2631.591914756153
 20
74.72300676522002
 30
0.0
 11
-2636.148875432915
 21
71.90459813011841
 31
0.0
  0
LINE
  5
291
  8
回03-記事
  6
CONTINUOUS
 62
     7
 10
-2643.357157257492
 20
81.36396622513633
 30
0.0
 11
-2639.794442961079
 21
79.95475783944368
 31
0.0
  0
TEXT
  5
292
  8
回03-記事
  6
CONTINUOUS
 62
     7
 10
-2631.287450317966
 20
74.25438756745461
 30
0.0
 40
3.0
  1
2
  0
TEXT
  5
293
  8
回03-記事
  6
CONTINUOUS
 62
     7
 10
-2645.685055137269
 20
80.06742583478786
 30
0.0
 40
3.0
  1
1
  0
TEXT
  5
294
  8
回03-記事
  6
CONTINUOUS
 62
     7
 10
-2644.623939563316
 20
-7.372537169258635
 30
0.0
 40
3.0
  1
5
  0
TEXT
  5
295
  8
回03-記事
  6
CONTINUOUS
 62
     7
 10
-2633.526899734752
 20
28.54785580983941
 30
0.0
 40
3.0
  1
4
  0
TEXT
  5
296
  8
回03-記事
  6
CONTINUOUS
 62
     7
 10
-2646.487297395332
 20
20.8945539053347
 30
0.0
 40
3.0
  1
3
  0
DIMENSION
  5
297
  8
回02-寸法
  6
CONTINUOUS
 62
     7
  2
*D8
 10
-2639.979043681181
 20
-29.30807710392861
 30
0.0
 11
-2648.910503705903
 21
-27.55807710392861
 31
0.0
 70
     0
  1
0.3{\H0.6667x;±0.05}
  3
DMC
 13
-2637.77904368118
 23
-20.51008173828387
 33
0.0
 14
-2639.979043681181
 24
-20.51008173828387
 34
0.0
1001
ACADSTRINGINFO
1000
MIFCodePage
1070
     1
  0
DIMENSION
  5
2A6
  8
回02-寸法
  6
CONTINUOUS
 62
     2
  2
*D7
 10
-2631.431309163771
 20
-20.51008173828388
 30
0.0
 11
-2631.431309163771
 21
-8.557581738283886
 31
0.0
 70
   128
  3
DMC
 13
-2637.27904368118
 23
-15.51008173828387
 33
0.0
 14
-2637.77904368118
 24
-20.51008173828387
 34
0.0
 50
90.0
1001
ACAD
1000
DSTYLE
1002
{
1070
   371
1070
     9
1070
   372
1070
     9
1002
}
  0
DIMENSION
  5
2B5
  8
回02-寸法
  6
CONTINUOUS
 62
     2
  2
*D6
 10
-2649.195965862175
 20
-10.51008173828388
 30
0.0
 11
-2651.070965862174
 21
-15.51008173828313
 31
0.0
 70
     0
  3
DMC
 13
-2639.979043681181
 23
-20.51008173828387
 33
0.0
 14
-2639.979043681181
 24
-10.51008173828387
 34
0.0
 50
90.0
1001
ACAD
1000
DSTYLE
1002
{
1070
     3
1000
(<>)
1070
   371
1070
     9
1070
   372
1070
     9
1002
}
  0
DIMENSION
  5
2C2
  8
回02-寸法
  6
CONTINUOUS
 62
     7
  2
*D5
 10
-2643.140846690695
 20
39.78996177248377
 30
0.0
 11
-2643.140846690695
 21
47.68223944484145
 31
0.0
 70
   128
  1
(<>)
  3
DMC
 13
-2637.77904368118
 23
39.48996177248375
 33
0.0
 14
-2638.77904368118
 24
39.78996177248376
 34
0.0
 50
90.0
  0
DIMENSION
  5
2D1
  8
回02-寸法
  6
CONTINUOUS
 62
     7
  2
*D4
 10
-2643.140846690707
 20
106.2939617724835
 30
0.0
 11
-2645.015846690706
 21
99.04494602445277
 31
0.0
 70
     0
  1
(<>)
  3
DMC
 13
-2637.77904368118
 23
106.5939617724835
 33
0.0
 14
-2637.77904368118
 24
106.2939617724835
 34
0.0
 50
90.0
  0
DIMENSION
  5
2E0
  8
回02-寸法
  6
CONTINUOUS
 62
     7
  2
*D3
 10
-2635.27904368118
 20
114.9305480897136
 30
0.0
 11
-2627.041398216121
 21
116.6805480897136
 31
0.0
 70
     0
  1
1.4{\H0.6667x;±0.2}
  3
DMC
 13
-2640.27904368118
 23
106.2939617724835
 33
0.0
 14
-2635.27904368118
 24
106.5939617724835
 34
0.0
 50
180.0
1001
ACADSTRINGINFO
1000
MIFCodePage
1070
     1
  0
ARC
  5
2EF
  8
回03-記事
  6
CONTINUOUS
 62
     7
 10
-2637.77904368118
 20
50.34077203338217
 30
0.0
 40
0.2
 50
90.0
 51
270.0
  0
ARC
  5
2F0
  8
回03-記事
  6
CONTINUOUS
 62
     7
 10
-2637.77904368118
 20
54.34077203338216
 30
0.0
 40
0.2
 50
90.0
 51
270.0
  0
ARC
  5
2F1
  8
回03-記事
  6
CONTINUOUS
 62
     7
 10
-2637.77904368118
 20
58.34077203338217
 30
0.0
 40
0.2
 50
90.0
 51
270.0
  0
ARC
  5
2F2
  8
回03-記事
  6
CONTINUOUS
 62
     7
 10
-2637.77904368118
 20
62.34077203338216
 30
0.0
 40
0.2
 50
90.0
 51
270.0
  0
ARC
  5
2F3
  8
回03-記事
  6
CONTINUOUS
 62
     7
 10
-2637.77904368118
 20
66.34077203338216
 30
0.0
 40
0.2
 50
90.0
 51
270.0
  0
ARC
  5
2F4
  8
回03-記事
  6
CONTINUOUS
 62
     7
 10
-2637.77904368118
 20
70.34077203338217
 30
0.0
 40
0.2
 50
90.0
 51
270.0
  0
ARC
  5
2F5
  8
回03-記事
  6
CONTINUOUS
 62
     7
 10
-2637.77904368118
 20
74.34077203338216
 30
0.0
 40
0.2
 50
90.0
 51
270.0
  0
ARC
  5
2F6
  8
回03-記事
  6
CONTINUOUS
 62
     7
 10
-2637.77904368118
 20
78.34077203338217
 30
0.0
 40
0.2
 50
90.0
 51
270.0
  0
ARC
  5
2F7
  8
回03-記事
  6
CONTINUOUS
 62
     7
 10
-2637.77904368118
 20
82.34077203338216
 30
0.0
 40
0.2
 50
90.0
 51
270.0
  0
ARC
  5
2F8
  8
回03-記事
  6
CONTINUOUS
 62
     7
 10
-2637.77904368118
 20
86.34077203338216
 30
0.0
 40
0.2
 50
90.0
 51
270.0
  0
ARC
  5
2F9
  8
回03-記事
  6
CONTINUOUS
 62
     7
 10
-2637.77904368118
 20
90.34077203338217
 30
0.0
 40
0.2
 50
90.0
 51
270.0
  0
ARC
  5
2FA
  8
回03-記事
  6
CONTINUOUS
 62
     7
 10
-2637.77904368118
 20
94.34077203338217
 30
0.0
 40
0.2
 50
90.0
 51
270.0
  0
ARC
  5
2FB
  8
回03-記事
  6
CONTINUOUS
 62
     7
 10
-2637.77904368118
 20
98.34077203338217
 30
0.0
 40
0.2
 50
90.0
 51
270.0
  0
ARC
  5
2FC
  8
回03-記事
  6
CONTINUOUS
 62
     7
 10
-2637.77904368118
 20
102.3407720333821
 30
0.0
 40
0.2
 50
90.0
 51
270.0
  0
POLYLINE
  5
2FD
  8
回03-記事
  6
CONTINUOUS
 62
     7
 66
     1
 10
0.0
 20
0.0
 30
0.0
 70
     1
  0
VERTEX
  5
434
  8
回03-記事
  6
CONTINUOUS
 62
     7
 10
-2637.77904368118
 20
-15.51008173828387
 30
0.0
  0
VERTEX
  5
436
  8
回03-記事
  6
CONTINUOUS
 62
     7
 10
-2637.77904368118
 20
39.78996177248376
 30
0.0
  0
VERTEX
  5
437
  8
回03-記事
  6
CONTINUOUS
 62
     7
 10
-2637.279043681181
 20
39.78996177248376
 30
0.0
  0
VERTEX
  5
438
  8
回03-記事
  6
CONTINUOUS
 62
     7
 10
-2637.279043681181
 20
-15.51008173828387
 30
0.0
  0
SEQEND
  5
435
  8
回07-寸法
  6
CONTINUOUS
 62
     1
  0
POLYLINE
  5
2FE
  8
回03-記事
  6
CONTINUOUS
 62
     7
 66
     1
 10
0.0
 20
0.0
 30
0.0
 70
     1
  0
VERTEX
  5
439
  8
回03-記事
  6
CONTINUOUS
 62
     7
 10
-2638.77904368118
 20
-20.51008173828387
 30
0.0
  0
VERTEX
  5
43B
  8
回03-記事
  6
CONTINUOUS
 62
     7
 10
-2638.77904368118
 20
-10.51008173828387
 30
0.0
  0
VERTEX
  5
43C
  8
回03-記事
  6
CONTINUOUS
 62
     7
 10
-2639.979043681181
 20
-10.51008173828387
 30
0.0
  0
VERTEX
  5
43D
  8
回03-記事
  6
CONTINUOUS
 62
     7
 10
-2639.979043681181
 20
-20.51008173828387
 30
0.0
  0
SEQEND
  5
43A
  8
回07-寸法
  6
CONTINUOUS
 62
     1
  0
LINE
  5
2FF
  8
回03-記事
  6
CONTINUOUS
 62
     7
 10
-2638.77904368118
 20
47.36196177248371
 30
0.0
 11
-2637.77904368118
 21
47.36196177248371
 31
0.0
  0
LINE
  5
300
  8
回03-記事
  6
CONTINUOUS
 62
     7
 10
-2638.77904368118
 20
106.2939617724835
 30
0.0
 11
-2637.77904368118
 21
106.2939617724835
 31
0.0
  0
LINE
  5
301
  8
回03-記事
  6
CONTINUOUS
 62
     7
 10
-2638.77904368118
 20
104.2219617724836
 30
0.0
 11
-2637.77904368118
 21
104.2219617724836
 31
0.0
  0
POLYLINE
  5
302
  8
回03-記事
  6
CONTINUOUS
 62
     7
 66
     1
 10
0.0
 20
0.0
 30
0.0
 70
     1
  0
VERTEX
  5
43E
  8
回03-記事
  6
CONTINUOUS
 62
     7
 10
-2637.77904368118
 20
-20.51008173828387
 30
0.0
  0
VERTEX
  5
440
  8
回03-記事
  6
CONTINUOUS
 62
     7
 10
-2637.77904368118
 20
42.98996177248375
 30
0.0
  0
VERTEX
  5
441
  8
回03-記事
  6
CONTINUOUS
 62
     7
 10
-2638.77904368118
 20
42.98996177248375
 30
0.0
  0
VERTEX
  5
442
  8
回03-記事
  6
CONTINUOUS
 62
     7
 10
-2638.77904368118
 20
-20.51008173828387
 30
0.0
  0
SEQEND
  5
43F
  8
回07-寸法
  6
CONTINUOUS
 62
     1
  0
POLYLINE
  5
303
  8
回03-記事
  6
CONTINUOUS
 62
     7
 66
     1
 10
0.0
 20
0.0
 30
0.0
 70
     1
  0
VERTEX
  5
443
  8
回03-記事
  6
CONTINUOUS
 62
     7
 10
-2635.27904368118
 20
39.48996177248375
 30
0.0
  0
VERTEX
  5
445
  8
回03-記事
  6
CONTINUOUS
 62
     7
 10
-2635.27904368118
 20
106.5939617724835
 30
0.0
  0
VERTEX
  5
446
  8
回03-記事
  6
CONTINUOUS
 62
     7
 10
-2637.77904368118
 20
106.5939617724835
 30
0.0
  0
VERTEX
  5
447
  8
回03-記事
  6
CONTINUOUS
 62
     7
 10
-2637.77904368118
 20
39.48996177248375
 30
0.0
  0
SEQEND
  5
444
  8
回07-寸法
  6
CONTINUOUS
 62
     1
  0
POLYLINE
  5
304
  8
回03-記事
  6
CONTINUOUS
 62
     7
 66
     1
 10
0.0
 20
0.0
 30
0.0
 70
     1
  0
VERTEX
  5
448
  8
回03-記事
  6
CONTINUOUS
 62
     7
 10
-2640.27904368118
 20
39.78996177248376
 30
0.0
  0
VERTEX
  5
44A
  8
回03-記事
  6
CONTINUOUS
 62
     7
 10
-2640.27904368118
 20
106.2939617724835
 30
0.0
  0
VERTEX
  5
44B
  8
回03-記事
  6
CONTINUOUS
 62
     7
 10
-2638.77904368118
 20
106.2939617724835
 30
0.0
  0
VERTEX
  5
44C
  8
回03-記事
  6
CONTINUOUS
 62
     7
 10
-2638.77904368118
 20
39.78996177248376
 30
0.0
  0
SEQEND
  5
449
  8
回07-寸法
  6
CONTINUOUS
 62
     1
  0
TEXT
  5
305
  8
回03-記事
  6
CONTINUOUS
 62
     7
 10
-2716.249275337269
 20
77.39210438982638
 30
0.0
 40
3.0
  1
XR
  0
CIRCLE
  5
306
  8
回03-記事
  6
CONTINUOUS
 62
     7
 10
-2742.183126451028
 20
60.04196177248366
 30
0.0
 40
0.025
  0
CIRCLE
  5
307
  8
回03-記事
  6
CONTINUOUS
 62
     7
 10
-2746.183126451028
 20
60.04196177248366
 30
0.0
 40
0.025
  0
CIRCLE
  5
308
  8
回03-記事
  6
CONTINUOUS
 62
     7
 10
-2750.183126451028
 20
60.04196177248366
 30
0.0
 40
0.025
  0
CIRCLE
  5
309
  8
回03-記事
  6
CONTINUOUS
 62
     7
 10
-2754.183126451028
 20
60.04196177248366
 30
0.0
 40
0.025
  0
CIRCLE
  5
30A
  8
回03-記事
  6
CONTINUOUS
 62
     7
 10
-2758.183126451028
 20
60.04196177248366
 30
0.0
 40
0.025
  0
CIRCLE
  5
30B
  8
回03-記事
  6
CONTINUOUS
 62
     7
 10
-2742.183126451028
 20
64.04196177248365
 30
0.0
 40
0.025
  0
CIRCLE
  5
30C
  8
回03-記事
  6
CONTINUOUS
 62
     7
 10
-2746.183126451028
 20
64.04196177248365
 30
0.0
 40
0.025
  0
CIRCLE
  5
30D
  8
回03-記事
  6
CONTINUOUS
 62
     7
 10
-2750.183126451028
 20
64.04196177248365
 30
0.0
 40
0.025
  0
CIRCLE
  5
30E
  8
回03-記事
  6
CONTINUOUS
 62
     7
 10
-2754.183126451028
 20
64.04196177248365
 30
0.0
 40
0.025
  0
CIRCLE
  5
30F
  8
回03-記事
  6
CONTINUOUS
 62
     7
 10
-2758.183126451028
 20
64.04196177248365
 30
0.0
 40
0.025
  0
CIRCLE
  5
310
  8
回03-記事
  6
CONTINUOUS
 62
     7
 10
-2742.183126451028
 20
68.04196177248366
 30
0.0
 40
0.025
  0
CIRCLE
  5
311
  8
回03-記事
  6
CONTINUOUS
 62
     7
 10
-2746.183126451028
 20
68.04196177248366
 30
0.0
 40
0.025
  0
CIRCLE
  5
312
  8
回03-記事
  6
CONTINUOUS
 62
     7
 10
-2750.183126451028
 20
68.04196177248366
 30
0.0
 40
0.025
  0
CIRCLE
  5
313
  8
回03-記事
  6
CONTINUOUS
 62
     7
 10
-2754.183126451028
 20
68.04196177248366
 30
0.0
 40
0.025
  0
CIRCLE
  5
314
  8
回03-記事
  6
CONTINUOUS
 62
     7
 10
-2758.183126451028
 20
68.04196177248366
 30
0.0
 40
0.025
  0
CIRCLE
  5
315
  8
回03-記事
  6
CONTINUOUS
 62
     7
 10
-2742.183126451028
 20
72.04196177248366
 30
0.0
 40
0.025
  0
CIRCLE
  5
316
  8
回03-記事
  6
CONTINUOUS
 62
     7
 10
-2746.183126451028
 20
72.04196177248366
 30
0.0
 40
0.025
  0
CIRCLE
  5
317
  8
回03-記事
  6
CONTINUOUS
 62
     7
 10
-2750.183126451028
 20
72.04196177248366
 30
0.0
 40
0.025
  0
CIRCLE
  5
318
  8
回03-記事
  6
CONTINUOUS
 62
     7
 10
-2754.183126451028
 20
72.04196177248366
 30
0.0
 40
0.025
  0
CIRCLE
  5
319
  8
回03-記事
  6
CONTINUOUS
 62
     7
 10
-2758.183126451028
 20
72.04196177248366
 30
0.0
 40
0.025
  0
CIRCLE
  5
31A
  8
回03-記事
  6
CONTINUOUS
 62
     7
 10
-2742.183126451028
 20
76.04196177248366
 30
0.0
 40
0.025
  0
CIRCLE
  5
31B
  8
回03-記事
  6
CONTINUOUS
 62
     7
 10
-2746.183126451028
 20
76.04196177248366
 30
0.0
 40
0.025
  0
CIRCLE
  5
31C
  8
回03-記事
  6
CONTINUOUS
 62
     7
 10
-2750.183126451028
 20
76.04196177248366
 30
0.0
 40
0.025
  0
CIRCLE
  5
31D
  8
回03-記事
  6
CONTINUOUS
 62
     7
 10
-2754.183126451028
 20
76.04196177248366
 30
0.0
 40
0.025
  0
INSERT
  5
31E
  8
回02-寸法
  6
CONTINUOUS
 62
     5
 66
     1
  2
*X46
 10
0.0
 20
0.0
 30
0.0
  0
SEQEND
  5
453
  8
回07-寸法
  6
CONTINUOUS
 62
     1
  0
TEXT
  5
31F
  8
回02-寸法
  6
CONTINUOUS
 62
     5
 10
-2738.25022358112
 20
64.6295950318721
 30
0.0
 40
3.0
  1
φ0.05
1001
ACAD
1000
MTEXTBEGIN
1070
    73
1070
     1
1070
    44
1040
1.0
1070
    74
1070
     0
1000
MTEXTEND
  0
DIMENSION
  5
320
  8
回02-寸法
  6
CONTINUOUS
 62
     7
  2
*D2
 10
-2763.750452297984
 20
68.04196177248369
 30
0.0
 11
-2765.500452297984
 21
62.91696177248446
 31
0.0
 70
     0
  3
DMC
 13
-2754.183126451028
 23
72.04196177248366
 33
0.0
 14
-2754.183126451028
 24
68.04196177248366
 34
0.0
 50
90.0
1001
ACAD
1000
DSTYLE
1002
{
1070
   372
1070
    13
1070
   371
1070
    13
1002
}
  0
DIMENSION
  5
32F
  8
回02-寸法
  6
CONTINUOUS
 62
     7
  2
*D1
 10
-2750.183126451028
 20
79.477957164548
 30
0.0
 11
-2745.058126451028
 21
81.22795716454801
 31
0.0
 70
     0
  3
DMC
 13
-2754.183126451028
 23
72.04196177248366
 33
0.0
 14
-2750.183126451028
 24
72.04196177248366
 34
0.0
1001
ACAD
1000
DSTYLE
1002
{
1070
   372
1070
    13
1070
   371
1070
    13
1002
}
  0
CIRCLE
  5
33E
  8
回03-記事
  6
CONTINUOUS
 62
     7
 10
-2758.183126451028
 20
76.04196177248366
 30
0.0
 40
0.025
  0
TEXT
  5
33F
  8
回03-記事
  6
CONTINUOUS
 62
     7
 10
-2756.821603654252
 20
50.31649834803679
 30
0.0
 40
3.0
  1
YD
  0
LINE
  5
340
  8
回03-記事
  6
CENTER2
 62
     7
 10
-2709.413126451027
 20
76.04196177248366
 30
0.0
 11
-2806.953126451027
 21
76.04196177248366
 31
0.0
  0
TEXT
  5
341
  8
回03-記事
  6
CONTINUOUS
 62
     7
 10
-2757.200062071226
 20
97.95542264053871
 30
0.0
 40
3.0
  1
YU
  0
LINE
  5
342
  8
回03-記事
  6
CENTER2
 62
     7
 10
-2758.183126451028
 20
47.86196177248365
 30
0.0
 11
-2758.183126451028
 21
103.7219617724836
 31
0.0
  0
TEXT
  5
343
  8
回03-記事
  6
CONTINUOUS
 62
     7
 10
-2803.884003850284
 20
77.63804038561977
 30
0.0
 40
3.0
  1
XL
  0
TEXT
  5
344
  8
回03-記事
  6
CONTINUOUS
 62
     7
 10
-2729.181837050162
 20
-22.90651881758862
 30
0.0
 40
1.679999999999999
  1
1
  0
TEXT
  5
345
  8
回03-記事
  6
CONTINUOUS
 62
     7
 10
-2722.375094065718
 20
-22.88362586179977
 30
0.0
 40
1.679999999999999
  1
4
  0
POLYLINE
  5
346
  8
回04-下接
  6
CONTINUOUS
 62
     7
 66
     1
 10
0.0
 20
0.0
 30
0.0
 70
     1
  0
VERTEX
  5
454
  8
回04-下接
  6
CONTINUOUS
 62
     7
 10
-2810.933126451028
 20
39.4899617724837
 30
0.0
  0
VERTEX
  5
456
  8
回04-下接
  6
CONTINUOUS
 62
     7
 10
-2810.933126451028
 20
106.5939617724836
 30
0.0
  0
VERTEX
  5
457
  8
回04-下接
  6
CONTINUOUS
 62
     7
 10
-2705.533126451027
 20
106.5939617724836
 30
0.0
  0
VERTEX
  5
458
  8
回04-下接
  6
CONTINUOUS
 62
     7
 10
-2705.533126451027
 20
39.4899617724837
 30
0.0
  0
SEQEND
  5
455
  8
回07-寸法
  6
CONTINUOUS
 62
     1
  0
POLYLINE
  5
34A
  8
回03-記事
  6
CONTINUOUS
 62
     7
 66
     1
 10
0.0
 20
0.0
 30
0.0
 70
     1
  0
VERTEX
  5
459
  8
回03-記事
  6
CONTINUOUS
 62
     7
 10
-2806.953126451027
 20
47.86196177248365
 30
0.0
  0
VERTEX
  5
45B
  8
回03-記事
  6
CONTINUOUS
 62
     7
 10
-2806.953126451027
 20
103.7219617724836
 30
0.0
  0
VERTEX
  5
45C
  8
回03-記事
  6
CONTINUOUS
 62
     7
 10
-2709.413126451027
 20
103.7219617724836
 30
0.0
  0
VERTEX
  5
45D
  8
回03-記事
  6
CONTINUOUS
 62
     7
 10
-2709.413126451027
 20
47.86196177248365
 30
0.0
  0
SEQEND
  5
45A
  8
回07-寸法
  6
CONTINUOUS
 62
     1
  0
POLYLINE
  5
34B
  8
回03-記事
  6
CONTINUOUS
 62
     7
 66
     1
 10
0.0
 20
0.0
 30
0.0
 70
     1
  0
VERTEX
  5
45E
  8
回03-記事
  6
CONTINUOUS
 62
     7
 10
-2805.953126451028
 20
48.86196177248365
 30
0.0
  0
VERTEX
  5
460
  8
回03-記事
  6
CONTINUOUS
 62
     7
 10
-2805.953126451028
 20
103.2219617724836
 30
0.0
  0
VERTEX
  5
461
  8
回03-記事
  6
CONTINUOUS
 62
     7
 10
-2710.413126451028
 20
103.2219617724836
 30
0.0
  0
VERTEX
  5
462
  8
回03-記事
  6
CONTINUOUS
 62
     7
 10
-2710.413126451028
 20
48.86196177248365
 30
0.0
  0
SEQEND
  5
45F
  8
回07-寸法
  6
CONTINUOUS
 62
     1
  0
TEXT
  5
34C
  8
回03-記事
  6
CONTINUOUS
 62
     7
 10
-2593.345157613513
 20
65.27178689931133
 30
0.0
 40
5.0
  1
Pin Assignment
  0
TEXT
  5
34D
  8
回03-記事
  6
CONTINUOUS
 10
-2579.245921900958
 20
-47.26272834641486
 30
0.0
 40
3.372171263999999
  1
PROTECTION TAPE
  0
TEXT
  5
34E
  8
回03-記事
  6
CONTINUOUS
 10
-2584.511212653169
 20
-47.28054388028204
 30
0.0
 40
3.507058114560001
  1
6
  0
LINE
  5
34F
  8
回03-記事
  6
CONTINUOUS
 10
-2586.30298765358
 20
-48.28752035216758
 30
0.0
 11
-2534.058830456663
 21
-48.28752035216758
 31
0.0
  0
TEXT
  5
350
  8
回03-記事
  6
CONTINUOUS
 10
-2579.673992889354
 20
-41.56362412923272
 30
0.0
 40
3.507058114560001
  1
STIFFENER
  0
TEXT
  5
351
  8
回03-記事
  6
CONTINUOUS
 10
-2579.673992889354
 20
-35.71852727163196
 30
0.0
 40
3.507058114560001
  1
REINFORCEMENT FILM
  0
TEXT
  5
352
  8
回03-記事
  6
CONTINUOUS
 10
-2565.871907363492
 20
-12.10557203221151
 30
0.0
 40
3.507058114560001
  1
ITEM
  0
LINE
  5
353
  8
回03-記事
  6
CONTINUOUS
 10
-2534.058830456663
 20
-48.28752035216758
 30
0.0
 11
-2534.058830456663
 21
-7.371842348967675
 31
0.0
  0
TEXT
  5
354
  8
回03-記事
  6
CONTINUOUS
 10
-2584.511212653169
 20
-29.74525330748429
 30
0.0
 40
3.507058114560001
  1
3
  0
TEXT
  5
355
  8
回03-記事
  6
CONTINUOUS
 10
-2584.511212653169
 20
-35.59035016508233
 30
0.0
 40
3.507058114560001
  1
4
  0
TEXT
  5
356
  8
回03-記事
  6
CONTINUOUS
 10
-2584.511212653169
 20
-23.9001564498808
 30
0.0
 40
3.507058114560001
  1
2
  0
TEXT
  5
357
  8
回03-記事
  6
CONTINUOUS
 10
-2584.511212653169
 20
-41.43544702268218
 30
0.0
 40
3.507058114560001
  1
5
  0
LINE
  5
358
  8
回03-記事
  6
CONTINUOUS
 10
-2580.221393254596
 20
-7.371842348967675
 30
0.0
 11
-2580.221393254596
 21
-48.28752035216758
 31
0.0
  0
LINE
  5
359
  8
回03-記事
  6
CONTINUOUS
 10
-2586.30298765358
 20
-7.371842348967675
 30
0.0
 11
-2586.30298765358
 21
-48.28752035216758
 31
0.0
  0
TEXT
  5
35A
  8
回03-記事
  6
CONTINUOUS
 10
-2584.511212653169
 20
-18.05505959228276
 30
0.0
 40
3.507058114560001
  1
1
  0
LINE
  5
35B
  8
回03-記事
  6
CONTINUOUS
 10
-2586.30298765358
 20
-42.44242349456771
 30
0.0
 11
-2534.058830456663
 21
-42.44242349456771
 31
0.0
  0
LINE
  5
35C
  8
回03-記事
  6
CONTINUOUS
 10
-2586.30298765358
 20
-7.371842348967675
 30
0.0
 11
-2534.058830456663
 21
-7.371842348967675
 31
0.0
  0
LINE
  5
35D
  8
回03-記事
  6
CONTINUOUS
 10
-2586.30298765358
 20
-19.06203606416648
 30
0.0
 11
-2534.058830456663
 21
-19.06203606417011
 31
0.0
  0
LINE
  5
35E
  8
回03-記事
  6
CONTINUOUS
 10
-2586.30298765358
 20
-13.21693920656662
 30
0.0
 11
-2534.058830456663
 21
-13.21693920656662
 31
0.0
  0
LINE
  5
35F
  8
回03-記事
  6
CONTINUOUS
 10
-2586.30298765358
 20
-36.59732663696696
 30
0.0
 11
-2534.058830456663
 21
-36.59732663696696
 31
0.0
  0
LINE
  5
360
  8
回03-記事
  6
CONTINUOUS
 10
-2586.30298765358
 20
-30.7522297793671
 30
0.0
 11
-2534.058830456663
 21
-30.7522297793671
 31
0.0
  0
LINE
  5
361
  8
回03-記事
  6
CONTINUOUS
 10
-2586.30298765358
 20
-24.90713292176724
 30
0.0
 11
-2534.058830456663
 21
-24.90713292176724
 31
0.0
  0
TEXT
  5
362
  8
回03-記事
  6
CONTINUOUS
 10
-2579.673992889354
 20
-18.13029238197805
 30
0.0
 40
3.507058114560001
  1
ITO FILM
  0
TEXT
  5
363
  8
回03-記事
  6
CONTINUOUS
 10
-2579.673992889354
 20
-23.97538923957882
 30
0.0
 40
3.507058114560001
  1
ITO GLASS
  0
TEXT
  5
364
  8
回03-記事
  6
CONTINUOUS
 10
-2579.673992889354
 20
-29.82048609718049
 30
0.0
 40
3.507058114560001
  1
TAIL
  0
LINE
  5
365
  8
回04-図面枠
  6
CONTINUOUS
 62
     7
 10
-2545.253496548605
 20
-87.73415528747364
 30
0.0
 11
-2545.253496548605
 21
-77.73415528747364
 31
0.0
  0
LINE
  5
367
  8
回04-図面枠
  6
CENTER2
 62
     7
 10
-2540.036088569599
 20
-86.3251808605537
 30
0.0
 11
-2540.036088569599
 21
-79.32512011196195
 31
0.0
  0
LINE
  5
368
  8
回04-図面枠
  6
CONTINUOUS
 62
     7
 10
-2535.269595419662
 20
-84.30306612437197
 30
0.0
 11
-2530.098790267921
 21
-85.61930309913533
 31
0.0
  0
LINE
  5
369
  8
回04-図面枠
  6
CONTINUOUS
 62
     7
 10
-2535.269595419662
 20
-81.34723484814367
 30
0.0
 11
-2530.098790267921
 21
-80.03099787337943
 31
0.0
  0
LINE
  5
36A
  8
回04-図面枠
  6
CONTINUOUS
 62
     7
 10
-2530.098790267921
 20
-80.03099787337943
 30
0.0
 11
-2530.098790267921
 21
-85.61930309913533
 31
0.0
  0
LINE
  5
36B
  8
回04-図面枠
  6
CONTINUOUS
 62
     7
 10
-2535.269595419662
 20
-81.34723484814367
 30
0.0
 11
-2535.269595419662
 21
-84.30306612437197
 31
0.0
  0
LINE
  5
36C
  8
回04-図面枠
  6
CENTER2
 62
     7
 10
-2543.245092881799
 20
-82.82515048625738
 30
0.0
 11
-2529.640510429678
 21
-82.82515048625738
 31
0.0
  0
CIRCLE
  5
36D
  8
回04-図面枠
  6
CONTINUOUS
 62
     7
 10
-2540.036088569599
 20
-82.82515048625738
 30
0.0
 40
1.477915638114184
  0
CIRCLE
  5
36E
  8
回04-図面枠
  6
CONTINUOUS
 62
     7
 10
-2540.036088569599
 20
-82.82515048625738
 30
0.0
 40
2.794152612877607
  0
TEXT
  5
36F
  8
回04-図面枠
 62
     7
 10
-2585.618415066801
 20
-72.97684605116637
 30
0.0
 40
5.0
  1
Sep/08/2023
 72
     1
 11
-2566.118415066801
 21
-72.97684605116637
 31
0.0
  0
TEXT
  5
370
  8
回04-図面枠
  6
CONTINUOUS
 62
     7
 10
-2571.167684961569
 20
-62.03740913554383
 30
0.0
 40
3.0
  1
DATE
  0
TEXT
  5
371
  8
回04-図面枠
 62
     7
 10
-2594.066733661457
 20
-85.19644745028154
 30
0.0
 40
5.0
  1
DMC Co., Ltd.
 72
     1
 11
-2574.191733661457
 21
-85.19644745028154
 31
0.0
  0
TEXT
  5
372
  8
回04-図面枠
 62
     7
 10
-2661.118415066801
 20
-70.2422730922417
 30
0.0
 40
5.0
  1
LST-043WB060B
 72
     1
 11
-2636.118415066801
 21
-70.2422730922417
 31
0.0
  0
TEXT
  5
373
  8
回04-図面枠
 62
     7
 10
-2645.568415066801
 20
-61.78690236811053
 30
0.0
 40
3.0
  1
PART　No.
 72
     1
 11
-2636.118415066801
 21
-61.78690236811053
 31
0.0
  0
LINE
  5
374
  8
回04-図面枠
 62
     7
 10
-2665.618415066801
 20
-82.73415528747364
 30
0.0
 11
-2606.618415066801
 21
-82.73415528747364
 31
0.0
  0
TEXT
  5
375
  8
回04-図面枠
 62
     7
 10
-2659.459005617982
 20
-81.58412455608777
 30
0.0
 40
3.0
  1
STANDARD TOUCHSCREEN
 72
     1
 11
-2636.118415066801
 21
-81.58412455608777
 31
0.0
  0
TEXT
  5
376
  8
回04-図面枠
 62
     7
 10
-2652.69851652815
 20
-86.58412455608777
 30
0.0
 40
3.0
  1
CIRCUIT　DRAWING
 72
     1
 11
-2636.118415066801
 21
-86.58412455608777
 31
0.0
  0
LINE
  5
377
  8
回04-図面枠
 62
     7
 10
-2603.618415066801
 20
-57.73415528747364
 30
0.0
 11
-2603.618415066801
 21
-87.73415528747364
 31
0.0
  0
TEXT
  5
378
  8
回04-図面枠
 62
     7
 10
-2640.918415066801
 20
-76.99053559789854
 30
0.0
 40
3.0
  1
TYPE
 72
     1
 11
-2636.118415066801
 21
-76.99053559789854
 31
0.0
  0
LINE
  5
379
  8
回04-図面枠
 62
     7
 10
-2668.618415066801
 20
-57.73415528747364
 30
0.0
 11
-2668.618415066801
 21
-87.73415528747364
 31
0.0
  0
LINE
  5
37A
  8
回04-図面枠
 62
     7
 10
-2668.618415066801
 20
-72.73415528747364
 30
0.0
 11
-2603.618415066801
 21
-72.73415528747364
 31
0.0
  0
LINE
  5
37B
  8
回04-図面枠
 62
     7
 10
-2668.618415066801
 20
-77.73415528747364
 30
0.0
 11
-2528.618415066801
 21
-77.73415528747364
 31
0.0
  0
LINE
  5
37C
  8
回04-図面枠
 62
     7
 10
-2668.618415066801
 20
-57.73415528747364
 30
0.0
 11
-2528.618415066801
 21
-57.73415528747364
 31
0.0
  0
LINE
  5
37D
  8
回04-図面枠
 62
     7
 10
-2668.618415066801
 20
-62.73415528747364
 30
0.0
 11
-2528.618415066801
 21
-62.73415528747364
 31
0.0
  0
LINE
  5
37E
  8
回90-枠2
 10
-2902.827557920213
 20
-87.73415528747364
 30
0.0
 11
-2528.618415066801
 21
-87.73415528747364
 31
0.0
  0
LINE
  5
380
  8
回90-枠2
 10
-2526.279607923966
 20
-90.07296243030692
 30
0.0
 11
-2905.166365063048
 21
-90.07296243030692
 31
0.0
  0
LINE
  5
381
  8
回90-枠2
 10
-2902.827557920213
 20
164.8570161385807
 30
0.0
 11
-2528.618415066801
 21
164.8570161385807
 31
0.0
  0
LINE
  5
382
  8
回90-枠2
 10
-2526.279607923966
 20
167.1958232814145
 30
0.0
 11
-2905.166365063048
 21
167.1958232814145
 31
0.0
  0
LINE
  5
383
  8
回90-枠2
 10
-2902.827557920213
 20
164.8570161385807
 30
0.0
 11
-2902.827557920213
 21
-87.73415528747364
 31
0.0
  0
LINE
  5
384
  8
回90-枠2
 10
-2905.166365063048
 20
-90.07296243030692
 30
0.0
 11
-2905.166365063048
 21
167.1958232814145
 31
0.0
  0
TEXT
  5
385
  8
回90-枠2
 10
-2893.060680532183
 20
-89.89875725683395
 30
0.0
 40
1.871045714267065
  1
A
  0
LINE
  5
386
  8
回90-枠2
 10
-2902.827557920213
 20
-45.63562671646377
 30
0.0
 11
-2905.166365063048
 21
-45.63562671646377
 31
0.0
  0
TEXT
  5
387
  8
回90-枠2
 10
-2904.687213954253
 20
-67.71925779146591
 30
0.0
 40
1.871045714267065
  1
6
  0
TEXT
  5
388
  8
回90-枠2
 10
-2904.687213954253
 20
-25.6207292204565
 30
0.0
 40
1.871045714267065
  1
5
  0
LINE
  5
389
  8
回90-枠2
 10
-2873.755878844926
 20
-87.73415528747364
 30
0.0
 11
-2873.755878844926
 21
-90.07296243030692
 31
0.0
  0
TEXT
  5
38A
  8
回90-枠2
 10
-2855.639766246841
 20
-89.89875725683395
 30
0.0
 40
1.871045714267065
  1
B
  0
LINE
  5
38B
  8
回90-枠2
 10
-2836.334964559585
 20
-87.73415528747364
 30
0.0
 11
-2836.334964559585
 21
-90.07296243030692
 31
0.0
  0
TEXT
  5
38C
  8
回90-枠2
 10
-2818.2188519615
 20
-89.89875725683395
 30
0.0
 40
1.871045714267065
  1
C
  0
LINE
  5
38D
  8
回90-枠2
 10
-2798.914050274243
 20
-87.73415528747364
 30
0.0
 11
-2798.914050274243
 21
-90.07296243030692
 31
0.0
  0
TEXT
  5
38E
  8
回90-枠2
 10
-2772.448702466106
 20
-89.89875725683395
 30
0.0
 40
1.871045714267065
  1
D
  0
LINE
  5
38F
  8
回90-枠2
 10
-2753.143900778847
 20
-87.73415528747364
 30
0.0
 11
-2753.143900778847
 21
-90.07296243030692
 31
0.0
  0
TEXT
  5
390
  8
回90-枠2
 10
-2904.687213954253
 20
16.47779935055268
 30
0.0
 40
1.871045714267065
  1
4
  0
LINE
  5
391
  8
回90-枠2
 10
-2902.827557920213
 20
-3.53709814545482
 30
0.0
 11
-2905.166365063048
 21
-3.53709814545482
 31
0.0
  0
LINE
  5
392
  8
回90-枠2
 10
-2902.827557920213
 20
38.56143042555436
 30
0.0
 11
-2905.166365063048
 21
38.56143042555436
 31
0.0
  0
TEXT
  5
393
  8
回90-枠2
 10
-2904.653024279747
 20
58.57632792156164
 30
0.0
 40
1.871045714267065
  1
3
  0
LINE
  5
394
  8
回90-枠2
 10
-2902.827557920213
 20
80.65995899656309
 30
0.0
 11
-2905.166365063048
 21
80.65995899656309
 31
0.0
  0
LINE
  5
395
  8
回90-枠2
 10
-2902.827557920213
 20
122.758487567572
 30
0.0
 11
-2905.166365063048
 21
122.758487567572
 31
0.0
  0
TEXT
  5
396
  8
回90-枠2
 10
-2904.650460552233
 20
100.6748564925706
 30
0.0
 40
1.871045714267065
  1
2
  0
TEXT
  5
397
  8
回90-枠2
 10
-2904.509431088066
 20
142.7733850635795
 30
0.0
 40
1.871045714267065
  1
1
  0
TEXT
  5
398
  8
回90-枠2
 10
-2884.711445322129
 20
165.0312213120542
 30
0.0
 40
1.871045714267065
  1
A
  0
LINE
  5
399
  8
回90-枠2
 10
-2865.406643634872
 20
167.1958232814145
 30
0.0
 11
-2865.406643634872
 21
164.8570161385807
 31
0.0
  0
TEXT
  5
39A
  8
回90-枠2
 10
-2847.290531036787
 20
165.0312213120542
 30
0.0
 40
1.871045714267065
  1
B
  0
LINE
  5
39B
  8
回90-枠2
 10
-2827.98572934953
 20
167.1958232814145
 30
0.0
 11
-2827.98572934953
 21
164.8570161385807
 31
0.0
  0
TEXT
  5
39C
  8
回90-枠2
 10
-2809.869616751445
 20
165.0312213120542
 30
0.0
 40
1.871045714267065
  1
C
  0
LINE
  5
39D
  8
回90-枠2
 10
-2790.564815064189
 20
167.1958232814145
 30
0.0
 11
-2790.564815064189
 21
164.8570161385807
 31
0.0
  0
TEXT
  5
39E
  8
回90-枠2
 10
-2772.448702466106
 20
165.0312213120542
 30
0.0
 40
1.871045714267065
  1
D
  0
LINE
  5
39F
  8
回90-枠2
 10
-2753.143900778847
 20
167.1958232814145
 30
0.0
 11
-2753.143900778847
 21
164.8570161385807
 31
0.0
  0
LINE
  5
3A0
  8
回90-枠2
 10
-2528.618415066801
 20
164.8570161385807
 30
0.0
 11
-2528.618415066801
 21
-87.73415528747364
 31
0.0
  0
LINE
  5
3A1
  8
回90-枠2
 10
-2526.279607923966
 20
-90.07296243030692
 30
0.0
 11
-2526.279607923966
 21
167.1958232814145
 31
0.0
  0
TEXT
  5
3A2
  8
回90-枠2
 10
-2735.027788180764
 20
-89.89875725683395
 30
0.0
 40
1.871045714267065
  1
E
  0
LINE
  5
3A3
  8
回90-枠2
 10
-2715.722986493507
 20
-87.73415528747364
 30
0.0
 11
-2715.722986493507
 21
-90.07296243030692
 31
0.0
  0
TEXT
  5
3A4
  8
回90-枠2
 10
-2697.606873895422
 20
-89.89875725683395
 30
0.0
 40
1.871045714267065
  1
F
  0
LINE
  5
3A5
  8
回90-枠2
 10
-2678.302072208165
 20
-87.73415528747364
 30
0.0
 11
-2678.302072208165
 21
-90.07296243030692
 31
0.0
  0
TEXT
  5
3A6
  8
回90-枠2
 10
-2660.18595961008
 20
-89.89875725683395
 30
0.0
 40
1.871045714267065
  1
G
  0
LINE
  5
3A7
  8
回90-枠2
 10
-2640.881157922823
 20
-87.73415528747364
 30
0.0
 11
-2640.881157922823
 21
-90.07296243030692
 31
0.0
  0
TEXT
  5
3A8
  8
回90-枠2
 10
-2622.765045324738
 20
-89.89875725683395
 30
0.0
 40
1.871045714267065
  1
H
  0
LINE
  5
3A9
  8
回90-枠2
 10
-2603.460243637482
 20
-87.73415528747364
 30
0.0
 11
-2603.460243637482
 21
-90.07296243030692
 31
0.0
  0
TEXT
  5
3AA
  8
回90-枠2
 10
-2585.344131039398
 20
-89.89875725683395
 30
0.0
 40
1.871045714267065
  1
I
  0
LINE
  5
3AB
  8
回90-枠2
 10
-2566.039329352142
 20
-87.73415528747364
 30
0.0
 11
-2566.039329352142
 21
-90.07296243030692
 31
0.0
  0
TEXT
  5
3AC
  8
回90-枠2
 10
-2547.923216754057
 20
-89.89875725683395
 30
0.0
 40
1.871045714267065
  1
J
  0
LINE
  5
3AD
  8
回90-枠2
 10
-2526.279607923966
 20
-45.63562671646377
 30
0.0
 11
-2528.618415066801
 21
-45.63562671646377
 31
0.0
  0
TEXT
  5
3AE
  8
回90-枠2
 10
-2528.139263958007
 20
-67.71925779146591
 30
0.0
 40
1.871045714267065
  1
6
  0
TEXT
  5
3AF
  8
回90-枠2
 10
-2528.139263958007
 20
-25.6207292204565
 30
0.0
 40
1.871045714267065
  1
5
  0
TEXT
  5
3B0
  8
回90-枠2
 10
-2735.027788180764
 20
165.0312213120542
 30
0.0
 40
1.871045714267065
  1
E
  0
LINE
  5
3B1
  8
回90-枠2
 10
-2715.722986493507
 20
167.1958232814145
 30
0.0
 11
-2715.722986493507
 21
164.8570161385807
 31
0.0
  0
TEXT
  5
3B2
  8
回90-枠2
 10
-2697.606873895422
 20
165.0312213120542
 30
0.0
 40
1.871045714267065
  1
F
  0
LINE
  5
3B3
  8
回90-枠2
 10
-2678.302072208165
 20
167.1958232814145
 30
0.0
 11
-2678.302072208165
 21
164.8570161385807
 31
0.0
  0
TEXT
  5
3B4
  8
回90-枠2
 10
-2660.18595961008
 20
165.0312213120542
 30
0.0
 40
1.871045714267065
  1
G
  0
LINE
  5
3B5
  8
回90-枠2
 10
-2640.881157922823
 20
167.1958232814145
 30
0.0
 11
-2640.881157922823
 21
164.8570161385807
 31
0.0
  0
TEXT
  5
3B6
  8
回90-枠2
 10
-2622.765045324738
 20
165.0312213120542
 30
0.0
 40
1.871045714267065
  1
H
  0
LINE
  5
3B7
  8
回90-枠2
 10
-2603.460243637482
 20
167.1958232814145
 30
0.0
 11
-2603.460243637482
 21
164.8570161385807
 31
0.0
  0
TEXT
  5
3B8
  8
回90-枠2
 10
-2585.344131039398
 20
165.0312213120542
 30
0.0
 40
1.871045714267065
  1
I
  0
LINE
  5
3B9
  8
回90-枠2
 10
-2566.039329352142
 20
167.1958232814145
 30
0.0
 11
-2566.039329352142
 21
164.8570161385807
 31
0.0
  0
TEXT
  5
3BA
  8
回90-枠2
 10
-2547.923216754057
 20
165.0312213120542
 30
0.0
 40
1.871045714267065
  1
J
  0
TEXT
  5
3BB
  8
回90-枠2
 10
-2528.139263958007
 20
16.47779935055268
 30
0.0
 40
1.871045714267065
  1
4
  0
LINE
  5
3BC
  8
回90-枠2
 10
-2526.279607923966
 20
-3.53709814545482
 30
0.0
 11
-2528.618415066801
 21
-3.53709814545482
 31
0.0
  0
TEXT
  5
3BD
  8
回90-枠2
 10
-2528.105074283499
 20
58.57632792156164
 30
0.0
 40
1.871045714267065
  1
3
  0
LINE
  5
3BE
  8
回90-枠2
 10
-2526.279607923966
 20
38.56143042555436
 30
0.0
 11
-2528.618415066801
 21
38.56143042555436
 31
0.0
  0
ENDSEC
  0
EOF
